<?xml version="1.0" standalone="no"?>
<!DOCTYPE svg PUBLIC "-//W3C//DTD SVG 1.1//EN" "http://www.w3.org/Graphics/SVG/1.1/DTD/svg11.dtd" >
<svg xmlns="http://www.w3.org/2000/svg">
<metadata>Generated by IcoMoon</metadata>
<defs>
<font id="zenmine" horiz-adv-x="1024">
<font-face units-per-em="1024" ascent="960" descent="-64" />
<missing-glyph horiz-adv-x="1024" />
<glyph unicode="&#x20;" horiz-adv-x="512" d="" />
<glyph unicode="&#xe81e;" glyph-name="alert-triangle" d="M149.333 21.333c-21.333 0-42.667 4.267-64 17.067-59.733 34.133-81.067 115.2-46.933 174.933l362.667 605.867c0 0 0 0 0 0 12.8 17.067 25.6 34.133 42.667 42.667 29.867 17.067 64 21.333 98.133 12.8s59.733-29.867 81.067-59.733l358.4-601.6c12.8-21.333 17.067-42.667 17.067-64 0-34.133-12.8-68.267-38.4-89.6-21.333-25.6-51.2-38.4-85.333-38.4h-725.333zM473.6 772.267l-358.4-601.6c-12.8-21.333-4.267-46.933 17.067-59.733 4.267-4.267 12.8-4.267 17.067-4.267h721.067c12.8 0 21.333 4.267 29.867 12.8s12.8 17.067 12.8 29.867c0 8.533 0 12.8-4.267 21.333l-358.4 601.6c-12.8 21.333-38.4 25.6-59.733 17.067-8.533-4.267-12.8-8.533-17.067-17.067zM512 362.667c-25.6 0-42.667 17.067-42.667 42.667v170.667c0 25.6 17.067 42.667 42.667 42.667s42.667-17.067 42.667-42.667v-170.667c0-25.6-17.067-42.667-42.667-42.667zM512 192c-12.8 0-21.333 4.267-29.867 12.8s-12.8 17.067-12.8 29.867c0 4.267 0 12.8 4.267 17.067s4.267 8.533 8.533 12.8c17.067 17.067 42.667 17.067 59.733 0 4.267-4.267 8.533-8.533 8.533-12.8s4.267-12.8 4.267-17.067 0-12.8-4.267-17.067c-4.267-4.267-4.267-8.533-8.533-12.8-8.533-8.533-17.067-12.8-29.867-12.8z" />
<glyph unicode="&#xe827;" glyph-name="aperture" d="M512-21.333c-260.267 0-469.333 209.067-469.333 469.333s209.067 469.333 469.333 469.333 469.333-209.067 469.333-469.333-209.067-469.333-469.333-469.333zM512 832c-213.333 0-384-170.667-384-384s170.667-384 384-384c213.333 0 384 170.667 384 384s-170.667 384-384 384zM857.6 153.6c-12.8 0-29.867 8.533-38.4 21.333l-243.2 422.4c-12.8 21.333-4.267 46.933 17.067 59.733s46.933 4.267 59.733-17.067l243.2-422.4c12.8-21.333 4.267-46.933-17.067-59.733-8.533-4.267-17.067-4.267-21.333-4.267zM904.533 576h-490.667c-25.6 0-42.667 17.067-42.667 42.667s17.067 42.667 42.667 42.667h490.667c25.6 0 42.667-17.067 42.667-42.667s-21.333-42.667-42.667-42.667zM315.733 405.333c-8.533 0-12.8 0-21.333 4.267-21.333 12.8-25.6 38.4-17.067 59.733l243.2 422.4c12.8 21.333 38.4 25.6 59.733 17.067 21.333-12.8 25.6-38.4 17.067-59.733l-243.2-422.4c-8.533-12.8-25.6-21.333-38.4-21.333zM413.867 234.667c-12.8 0-29.867 8.533-38.4 21.333l-243.2 422.4c-12.8 21.333-4.267 46.933 17.067 59.733s46.933 4.267 59.733-17.067l243.2-422.4c12.8-21.333 4.267-46.933-17.067-59.733-8.533-4.267-12.8-4.267-21.333-4.267zM610.133 234.667h-490.667c-25.6 0-42.667 17.067-42.667 42.667s17.067 42.667 42.667 42.667h490.667c25.6 0 42.667-17.067 42.667-42.667s-17.067-42.667-42.667-42.667zM465.067-17.067c-8.533 0-12.8 0-21.333 4.267-21.333 12.8-25.6 38.4-17.067 59.733l243.2 422.4c12.8 21.333 38.4 25.6 59.733 17.067 21.333-12.8 25.6-38.4 17.067-59.733l-243.2-422.4c-8.533-17.067-25.6-21.333-38.4-21.333z" />
<glyph unicode="&#xe82f;" glyph-name="bar-chart" d="M512 64c-25.6 0-42.667 17.067-42.667 42.667v426.667c0 25.6 17.067 42.667 42.667 42.667s42.667-17.067 42.667-42.667v-426.667c0-25.6-17.067-42.667-42.667-42.667zM768 64c-25.6 0-42.667 17.067-42.667 42.667v682.667c0 25.6 17.067 42.667 42.667 42.667s42.667-17.067 42.667-42.667v-682.667c0-25.6-17.067-42.667-42.667-42.667zM256 64c-25.6 0-42.667 17.067-42.667 42.667v170.667c0 25.6 17.067 42.667 42.667 42.667s42.667-17.067 42.667-42.667v-170.667c0-25.6-17.067-42.667-42.667-42.667z" />
<glyph unicode="&#xe831;" glyph-name="bar-chart-2" d="M768 64c-25.6 0-42.667 17.067-42.667 42.667v426.667c0 25.6 17.067 42.667 42.667 42.667s42.667-17.067 42.667-42.667v-426.667c0-25.6-17.067-42.667-42.667-42.667zM512 64c-25.6 0-42.667 17.067-42.667 42.667v682.667c0 25.6 17.067 42.667 42.667 42.667s42.667-17.067 42.667-42.667v-682.667c0-25.6-17.067-42.667-42.667-42.667zM256 64c-25.6 0-42.667 17.067-42.667 42.667v256c0 25.6 17.067 42.667 42.667 42.667s42.667-17.067 42.667-42.667v-256c0-25.6-17.067-42.667-42.667-42.667z" />
<glyph unicode="&#xe836;" glyph-name="bell" d="M512-21.333c-21.333 0-42.667 4.267-64 17.067s-34.133 25.6-46.933 46.933c-12.8 21.333-4.267 46.933 17.067 59.733s46.933 4.267 59.733-17.067c4.267-4.267 8.533-12.8 17.067-17.067 21.333-12.8 46.933-4.267 59.733 17.067s38.4 25.6 59.733 17.067c21.333-12.8 25.6-38.4 17.067-59.733-34.133-42.667-76.8-64-119.467-64zM938.667 192h-853.333c-25.6 0-42.667 17.067-42.667 42.667s17.067 42.667 42.667 42.667c46.933 0 85.333 38.4 85.333 85.333v213.333c0 187.733 153.6 341.333 341.333 341.333s341.333-153.6 341.333-341.333v-213.333c0-46.933 38.4-85.333 85.333-85.333 25.6 0 42.667-17.067 42.667-42.667s-17.067-42.667-42.667-42.667zM234.667 277.333h558.933c-12.8 25.6-21.333 55.467-21.333 85.333v213.333c0 140.8-115.2 256-256 256s-260.267-115.2-260.267-256v-213.333c0-29.867-8.533-59.733-21.333-85.333z" />
<glyph unicode="&#xe837;" glyph-name="book" d="M853.333-21.333h-576c-81.067 0-149.333 68.267-149.333 149.333v640c0 81.067 68.267 149.333 149.333 149.333h576c25.6 0 42.667-17.067 42.667-42.667v-853.333c0-25.6-17.067-42.667-42.667-42.667zM277.333 832c-34.133 0-64-29.867-64-64v-640c0-34.133 29.867-64 64-64h533.333v768h-533.333zM277.333 277.333c-21.333 0-42.667-4.267-64-17.067v-132.267c0 34.133 29.867 64 64 64h533.333v85.333h-533.333z" />
<glyph unicode="&#xe838;" glyph-name="briefcase" d="M853.333 21.333h-682.667c-72.533 0-128 55.467-128 128v426.667c0 72.533 55.467 128 128 128h682.667c72.533 0 128-55.467 128-128v-426.667c0-72.533-55.467-128-128-128zM170.667 618.667c-25.6 0-42.667-17.067-42.667-42.667v-426.667c0-25.6 17.067-42.667 42.667-42.667h682.667c25.6 0 42.667 17.067 42.667 42.667v426.667c0 25.6-17.067 42.667-42.667 42.667h-682.667zM682.667 21.333c-25.6 0-42.667 17.067-42.667 42.667v682.667c0 25.6-17.067 42.667-42.667 42.667h-170.667c-25.6 0-42.667-17.067-42.667-42.667v-682.667c0-25.6-17.067-42.667-42.667-42.667s-42.667 17.067-42.667 42.667v682.667c0 72.533 55.467 128 128 128h170.667c72.533 0 128-55.467 128-128v-682.667c0-25.6-17.067-42.667-42.667-42.667z" />
<glyph unicode="&#xe83a;" glyph-name="calendar" d="M810.667-21.333h-597.333c-72.533 0-128 55.467-128 128v597.333c0 72.533 55.467 128 128 128h597.333c72.533 0 128-55.467 128-128v-597.333c0-72.533-55.467-128-128-128zM213.333 746.667c-25.6 0-42.667-17.067-42.667-42.667v-597.333c0-25.6 17.067-42.667 42.667-42.667h597.333c25.6 0 42.667 17.067 42.667 42.667v597.333c0 25.6-17.067 42.667-42.667 42.667h-597.333zM682.667 661.333c-25.6 0-42.667 17.067-42.667 42.667v170.667c0 25.6 17.067 42.667 42.667 42.667s42.667-17.067 42.667-42.667v-170.667c0-25.6-17.067-42.667-42.667-42.667zM341.333 661.333c-25.6 0-42.667 17.067-42.667 42.667v170.667c0 25.6 17.067 42.667 42.667 42.667s42.667-17.067 42.667-42.667v-170.667c0-25.6-17.067-42.667-42.667-42.667zM170.667 576h682.667v-85.333h-682.667v85.333z" />
<glyph unicode="&#xe83b;" glyph-name="bookmark" d="M810.667 21.333c-8.533 0-17.067 4.267-25.6 8.533l-273.067 196.267-273.067-196.267c-12.8-8.533-29.867-8.533-42.667-4.267s-25.6 21.333-25.6 38.4v682.667c0 72.533 55.467 128 128 128h426.667c72.533 0 128-55.467 128-128v-682.667c0-17.067-8.533-29.867-21.333-38.4-8.533-4.267-12.8-4.267-21.333-4.267zM512 320c8.533 0 17.067-4.267 25.6-8.533l230.4-166.4v601.6c0 25.6-17.067 42.667-42.667 42.667h-426.667c-25.6 0-42.667-17.067-42.667-42.667v-601.6l230.4 166.4c8.533 4.267 17.067 8.533 25.6 8.533z" />
<glyph unicode="&#xe842;" glyph-name="chevron-down" d="M512 277.333c-12.8 0-21.333 4.267-29.867 12.8l-256 256c-17.067 17.067-17.067 42.667 0 59.733s42.667 17.067 59.733 0l226.133-226.133 226.133 226.133c17.067 17.067 42.667 17.067 59.733 0s17.067-42.667 0-59.733l-256-256c-8.533-8.533-17.067-12.8-29.867-12.8z" />
<glyph unicode="&#xe843;" glyph-name="chevron-left" d="M640 149.333c-12.8 0-21.333 4.267-29.867 12.8l-256 256c-17.067 17.067-17.067 42.667 0 59.733l256 256c17.067 17.067 42.667 17.067 59.733 0s17.067-42.667 0-59.733l-226.133-226.133 226.133-226.133c17.067-17.067 17.067-42.667 0-59.733-8.533-8.533-17.067-12.8-29.867-12.8z" />
<glyph unicode="&#xe844;" glyph-name="chevron-right" d="M384 149.333c-12.8 0-21.333 4.267-29.867 12.8-17.067 17.067-17.067 42.667 0 59.733l226.133 226.133-226.133 226.133c-17.067 17.067-17.067 42.667 0 59.733s42.667 17.067 59.733 0l256-256c17.067-17.067 17.067-42.667 0-59.733l-256-256c-8.533-8.533-17.067-12.8-29.867-12.8z" />
<glyph unicode="&#xe845;" glyph-name="chevron-up" d="M768 277.333c-12.8 0-21.333 4.267-29.867 12.8l-226.133 226.133-226.133-226.133c-17.067-17.067-42.667-17.067-59.733 0s-17.067 42.667 0 59.733l256 256c17.067 17.067 42.667 17.067 59.733 0l256-256c17.067-17.067 17.067-42.667 0-59.733-8.533-8.533-17.067-12.8-29.867-12.8z" />
<glyph unicode="&#xe847;" glyph-name="chevrons-right" d="M554.667 192c-12.8 0-21.333 4.267-29.867 12.8-17.067 17.067-17.067 42.667 0 59.733l183.467 183.467-183.467 183.467c-17.067 17.067-17.067 42.667 0 59.733s42.667 17.067 59.733 0l213.333-213.333c17.067-17.067 17.067-42.667 0-59.733l-213.333-213.333c-8.533-8.533-17.067-12.8-29.867-12.8zM256 192c-12.8 0-21.333 4.267-29.867 12.8-17.067 17.067-17.067 42.667 0 59.733l183.467 183.467-183.467 183.467c-17.067 17.067-17.067 42.667 0 59.733s42.667 17.067 59.733 0l213.333-213.333c17.067-17.067 17.067-42.667 0-59.733l-213.333-213.333c-8.533-8.533-17.067-12.8-29.867-12.8z" />
<glyph unicode="&#xe849;" glyph-name="chevrons-left" d="M469.333 192c-12.8 0-21.333 4.267-29.867 12.8l-213.333 213.333c-17.067 17.067-17.067 42.667 0 59.733l213.333 213.333c17.067 17.067 42.667 17.067 59.733 0s17.067-42.667 0-59.733l-183.467-183.467 183.467-183.467c17.067-17.067 17.067-42.667 0-59.733-8.533-8.533-17.067-12.8-29.867-12.8zM768 192c-12.8 0-21.333 4.267-29.867 12.8l-213.333 213.333c-17.067 17.067-17.067 42.667 0 59.733l213.333 213.333c17.067 17.067 42.667 17.067 59.733 0s17.067-42.667 0-59.733l-183.467-183.467 183.467-183.467c17.067-17.067 17.067-42.667 0-59.733-8.533-8.533-17.067-12.8-29.867-12.8z" />
<glyph unicode="&#xe84b;" glyph-name="clipboard" d="M768-21.333h-512c-72.533 0-128 55.467-128 128v597.333c0 72.533 55.467 128 128 128h85.333c25.6 0 42.667-17.067 42.667-42.667s-17.067-42.667-42.667-42.667h-85.333c-25.6 0-42.667-17.067-42.667-42.667v-597.333c0-25.6 17.067-42.667 42.667-42.667h512c25.6 0 42.667 17.067 42.667 42.667v597.333c0 25.6-17.067 42.667-42.667 42.667h-85.333c-25.6 0-42.667 17.067-42.667 42.667s17.067 42.667 42.667 42.667h85.333c72.533 0 128-55.467 128-128v-597.333c0-72.533-55.467-128-128-128zM640 661.333h-256c-46.933 0-85.333 38.4-85.333 85.333v85.333c0 46.933 38.4 85.333 85.333 85.333h256c46.933 0 85.333-38.4 85.333-85.333v-85.333c0-46.933-38.4-85.333-85.333-85.333zM384 832v0-85.333h256v85.333h-256z" />
<glyph unicode="&#xe84d;" glyph-name="clock" d="M512-21.333c-260.267 0-469.333 209.067-469.333 469.333s209.067 469.333 469.333 469.333 469.333-209.067 469.333-469.333-209.067-469.333-469.333-469.333zM512 832c-213.333 0-384-170.667-384-384s170.667-384 384-384c213.333 0 384 170.667 384 384s-170.667 384-384 384zM682.667 320c-8.533 0-12.8 0-17.067 4.267l-170.667 85.333c-17.067 8.533-25.6 21.333-25.6 38.4v256c0 25.6 17.067 42.667 42.667 42.667s42.667-17.067 42.667-42.667v-230.4l145.067-72.533c21.333-8.533 29.867-34.133 17.067-55.467-4.267-17.067-17.067-25.6-34.133-25.6z" />
<glyph unicode="&#xe855;" glyph-name="copy" d="M853.333-21.333h-384c-72.533 0-128 55.467-128 128v384c0 72.533 55.467 128 128 128h384c72.533 0 128-55.467 128-128v-384c0-72.533-55.467-128-128-128zM469.333 533.333c-25.6 0-42.667-17.067-42.667-42.667v-384c0-25.6 17.067-42.667 42.667-42.667h384c25.6 0 42.667 17.067 42.667 42.667v384c0 25.6-17.067 42.667-42.667 42.667h-384zM213.333 277.333h-42.667c-72.533 0-128 55.467-128 128v384c0 72.533 55.467 128 128 128h384c72.533 0 128-55.467 128-128v-42.667c0-25.6-17.067-42.667-42.667-42.667s-42.667 17.067-42.667 42.667v42.667c0 25.6-17.067 42.667-42.667 42.667h-384c-25.6 0-42.667-17.067-42.667-42.667v-384c0-25.6 17.067-42.667 42.667-42.667h42.667c25.6 0 42.667-17.067 42.667-42.667s-17.067-42.667-42.667-42.667z" />
<glyph unicode="&#xe856;" glyph-name="corner-down-right" d="M640 64c-12.8 0-21.333 4.267-29.867 12.8-17.067 17.067-17.067 42.667 0 59.733l183.467 183.467-183.467 183.467c-17.067 17.067-17.067 42.667 0 59.733s42.667 17.067 59.733 0l213.333-213.333c17.067-17.067 17.067-42.667 0-59.733l-213.333-213.333c-8.533-8.533-17.067-12.8-29.867-12.8zM853.333 277.333h-512c-119.467 0-213.333 93.867-213.333 213.333v298.667c0 25.6 17.067 42.667 42.667 42.667s42.667-17.067 42.667-42.667v-298.667c0-72.533 55.467-128 128-128h512c25.6 0 42.667-17.067 42.667-42.667s-17.067-42.667-42.667-42.667z" />
<glyph unicode="&#xe858;" glyph-name="image" d="M810.667 21.333c46.933 0 89.6 25.6 110.933 64h-68.267v64c0-25.6-17.067-42.667-42.667-42.667h-149.333v-85.333h149.333zM938.667 482.133v264.533c0 72.533-55.467 128-128 128h-597.333c-72.533 0-128-55.467-128-128v-597.333c0-17.067 4.267-29.867 8.533-42.667h119.467c-25.6 0-42.667 17.067-42.667 42.667v597.333c0 25.6 17.067 42.667 42.667 42.667h597.333c25.6 0 42.667-17.067 42.667-42.667v-264.533h85.333zM213.333 21.333h448v85.333h-567.467c17.067-51.2 64-85.333 119.467-85.333zM938.667 482.133h-85.333v-396.8h68.267c12.8 17.067 17.067 42.667 17.067 64v332.8zM362.667 490.667c-59.733 0-106.667 46.933-106.667 106.667s46.933 106.667 106.667 106.667 106.667-46.933 106.667-106.667-46.933-106.667-106.667-106.667zM362.667 618.667c-12.8 0-21.333-8.533-21.333-21.333s8.533-21.333 21.333-21.333 21.333 8.533 21.333 21.333-8.533 21.333-21.333 21.333zM712.533 563.2c-17.067 17.067-42.667 17.067-59.733 0l-456.533-456.533h119.467l366.933 366.933 170.667-170.667v119.467l-140.8 140.8z" />
<glyph unicode="&#xe864;" glyph-name="download" d="M810.667 21.333h-597.333c-72.533 0-128 55.467-128 128v170.667c0 25.6 17.067 42.667 42.667 42.667s42.667-17.067 42.667-42.667v-170.667c0-25.6 17.067-42.667 42.667-42.667h597.333c25.6 0 42.667 17.067 42.667 42.667v170.667c0 25.6 17.067 42.667 42.667 42.667s42.667-17.067 42.667-42.667v-170.667c0-72.533-55.467-128-128-128zM512 277.333c-12.8 0-21.333 4.267-29.867 12.8l-213.333 213.333c-17.067 17.067-17.067 42.667 0 59.733s42.667 17.067 59.733 0l183.467-183.467 183.467 183.467c17.067 17.067 42.667 17.067 59.733 0s17.067-42.667 0-59.733l-213.333-213.333c-8.533-8.533-17.067-12.8-29.867-12.8zM512 277.333c-25.6 0-42.667 17.067-42.667 42.667v512c0 25.6 17.067 42.667 42.667 42.667s42.667-17.067 42.667-42.667v-512c0-25.6-17.067-42.667-42.667-42.667z" />
<glyph unicode="&#xe866;" glyph-name="edit-2" d="M341.333 21.333h-213.333c-25.6 0-42.667 17.067-42.667 42.667v213.333c0 12.8 4.267 21.333 12.8 29.867l554.667 554.667c17.067 17.067 42.667 17.067 59.733 0l213.333-213.333c17.067-17.067 17.067-42.667 0-59.733l-554.667-554.667c-8.533-8.533-17.067-12.8-29.867-12.8zM170.667 106.667h153.6l512 512-153.6 153.6-512-512v-153.6z" />
<glyph unicode="&#xe867;" glyph-name="edit" d="M768-21.333h-597.333c-72.533 0-128 55.467-128 128v597.333c0 72.533 55.467 128 128 128h226.133c25.6 0 42.667-17.067 42.667-42.667s-17.067-42.667-42.667-42.667h-226.133c-25.6 0-42.667-17.067-42.667-42.667v-597.333c0-25.6 17.067-42.667 42.667-42.667h597.333c25.6 0 42.667 17.067 42.667 42.667v226.133c0 25.6 17.067 42.667 42.667 42.667s42.667-17.067 42.667-42.667v-226.133c0-72.533-55.467-128-128-128zM512 234.667h-170.667c-25.6 0-42.667 17.067-42.667 42.667v170.667c0 12.8 4.267 21.333 12.8 29.867l426.667 426.667c17.067 17.067 42.667 17.067 59.733 0l170.667-170.667c17.067-17.067 17.067-42.667 0-59.733l-426.667-426.667c-8.533-8.533-17.067-12.8-29.867-12.8zM384 320h110.933l384 384-110.933 110.933-384-384v-110.933z" />
<glyph unicode="&#xe868;" glyph-name="maximize" d="M810.667 21.333h-128c-25.6 0-42.667 17.067-42.667 42.667s17.067 42.667 42.667 42.667h128c25.6 0 42.667 17.067 42.667 42.667v128c0 25.6 17.067 42.667 42.667 42.667s42.667-17.067 42.667-42.667v-128c0-72.533-55.467-128-128-128zM341.333 21.333h-128c-72.533 0-128 55.467-128 128v128c0 25.6 17.067 42.667 42.667 42.667s42.667-17.067 42.667-42.667v-128c0-25.6 17.067-42.667 42.667-42.667h128c25.6 0 42.667-17.067 42.667-42.667s-17.067-42.667-42.667-42.667zM896 576c-25.6 0-42.667 17.067-42.667 42.667v128c0 25.6-17.067 42.667-42.667 42.667h-128c-25.6 0-42.667 17.067-42.667 42.667s17.067 42.667 42.667 42.667h128c72.533 0 128-55.467 128-128v-128c0-25.6-17.067-42.667-42.667-42.667zM128 576c-25.6 0-42.667 17.067-42.667 42.667v128c0 72.533 55.467 128 128 128h128c25.6 0 42.667-17.067 42.667-42.667s-17.067-42.667-42.667-42.667h-128c-25.6 0-42.667-17.067-42.667-42.667v-128c0-25.6-17.067-42.667-42.667-42.667z" />
<glyph unicode="&#xe86a;" glyph-name="eye" d="M512 64c-320 0-499.2 349.867-507.733 366.933-4.267 12.8-4.267 25.6 0 38.4 8.533 12.8 187.733 362.667 507.733 362.667s499.2-349.867 507.733-366.933c4.267-12.8 4.267-25.6 0-38.4-8.533-12.8-187.733-362.667-507.733-362.667zM89.6 448c38.4-68.267 192-298.667 422.4-298.667s379.733 230.4 422.4 298.667c-38.4 68.267-192 298.667-422.4 298.667s-379.733-230.4-422.4-298.667zM512 277.333c-93.867 0-170.667 76.8-170.667 170.667s76.8 170.667 170.667 170.667c93.867 0 170.667-76.8 170.667-170.667s-76.8-170.667-170.667-170.667zM512 533.333c-46.933 0-85.333-38.4-85.333-85.333s38.4-85.333 85.333-85.333c46.933 0 85.333 38.4 85.333 85.333s-38.4 85.333-85.333 85.333z" />
<glyph unicode="&#xe86e;" glyph-name="eye-off" d="M512 64c-320 0-499.2 349.867-507.733 366.933-4.267 12.8-4.267 25.6 0 38.4 55.467 102.4 132.267 192 230.4 264.533 17.067 17.067 42.667 12.8 59.733-8.533 12.8-17.067 12.8-46.933-8.533-59.733-81.067-59.733-145.067-132.267-196.267-217.6 38.4-68.267 192-298.667 422.4-298.667 81.067 0 162.133 29.867 226.133 81.067 17.067 12.8 46.933 8.533 59.733-8.533s8.533-46.933-8.533-59.733c-76.8-64-174.933-98.133-277.333-98.133zM887.467 268.8c-8.533 0-21.333 4.267-25.6 8.533-17.067 17.067-21.333 42.667-4.267 59.733 29.867 34.133 55.467 68.267 76.8 106.667-38.4 68.267-192 298.667-422.4 298.667-25.6 0-55.467-4.267-81.067-8.533-21.333 0-42.667 12.8-51.2 34.133-4.267 25.6 8.533 46.933 34.133 51.2 29.867 8.533 64 12.8 98.133 12.8 320 0 499.2-349.867 507.733-366.933 4.267-12.8 4.267-25.6 0-38.4-25.6-51.2-59.733-98.133-98.133-145.067-8.533-8.533-21.333-12.8-34.133-12.8zM507.733 273.067c-42.667 0-85.333 17.067-115.2 46.933-34.133 29.867-51.2 72.533-55.467 119.467 0 46.933 12.8 89.6 46.933 123.733 4.267 4.267 4.267 4.267 8.533 8.533 17.067 17.067 42.667 17.067 59.733 0s17.067-42.667 0-59.733c0 0-4.267-4.267-4.267-4.267-17.067-17.067-25.6-38.4-21.333-59.733 0-21.333 8.533-42.667 25.6-59.733s38.4-25.6 59.733-21.333c21.333 0 42.667 8.533 59.733 25.6s42.667 17.067 59.733 0c17.067-17.067 17.067-42.667 0-59.733-29.867-34.133-72.533-51.2-119.467-55.467 0-4.267 0-4.267-4.267-4.267zM981.333-64c-12.8 0-21.333 4.267-29.867 12.8l-938.667 938.667c-17.067 17.067-17.067 42.667 0 59.733s42.667 17.067 59.733 0l938.667-938.667c17.067-17.067 17.067-42.667 0-59.733-8.533-8.533-17.067-12.8-29.867-12.8z" />
<glyph unicode="&#xe870;" glyph-name="file-text" d="M806.4 725.333l-38.4 38.4-25.6-46.933zM810.667 576v-469.333c0-25.6-17.067-42.667-42.667-42.667h-512c-25.6 0-42.667 17.067-42.667 42.667v682.667c0 25.6 17.067 42.667 42.667 42.667h230.4v85.333h-230.4c-72.533 0-128-55.467-128-128v-682.667c0-72.533 55.467-128 128-128h512c72.533 0 128 55.467 128 128v469.333h-85.333zM580.267 832l119.467-119.467 42.667 4.267 25.6 46.933-140.8 140.8c-8.533 8.533-17.067 12.8-29.867 12.8h-110.933v-85.333h93.867zM883.2 648.533l-76.8 76.8-64-8.533-17.067-29.867 85.333-85.333v-25.6h85.333v42.667c0 12.8-4.267 21.333-12.8 29.867zM699.733 712.533l25.6-25.6 17.067 29.867zM682.667 362.667h-341.333c-25.6 0-42.667 17.067-42.667 42.667s17.067 42.667 42.667 42.667h341.333c25.6 0 42.667-17.067 42.667-42.667s-17.067-42.667-42.667-42.667zM682.667 192h-341.333c-25.6 0-42.667 17.067-42.667 42.667s17.067 42.667 42.667 42.667h341.333c25.6 0 42.667-17.067 42.667-42.667s-17.067-42.667-42.667-42.667zM426.667 533.333h-85.333c-25.6 0-42.667 17.067-42.667 42.667s17.067 42.667 42.667 42.667h85.333c25.6 0 42.667-17.067 42.667-42.667s-17.067-42.667-42.667-42.667zM640 661.333v110.933l-59.733 59.733h-25.6v-213.333c0-25.6 17.067-42.667 42.667-42.667h213.333v25.6l-59.733 59.733h-110.933z" />
<glyph unicode="&#xe874;" glyph-name="folder" d="M853.333 21.333h-682.667c-72.533 0-128 55.467-128 128v597.333c0 72.533 55.467 128 128 128h213.333c12.8 0 25.6-8.533 34.133-17.067l72.533-110.933h362.667c72.533 0 128-55.467 128-128v-469.333c0-72.533-55.467-128-128-128zM170.667 789.333c-25.6 0-42.667-17.067-42.667-42.667v-597.333c0-25.6 17.067-42.667 42.667-42.667h682.667c25.6 0 42.667 17.067 42.667 42.667v469.333c0 25.6-17.067 42.667-42.667 42.667h-384c-12.8 0-25.6 8.533-34.133 17.067l-72.533 110.933h-192z" />
<glyph unicode="&#xe878;" glyph-name="grid" d="M426.667 490.667h-298.667c-25.6 0-42.667 17.067-42.667 42.667v298.667c0 25.6 17.067 42.667 42.667 42.667h298.667c25.6 0 42.667-17.067 42.667-42.667v-298.667c0-25.6-17.067-42.667-42.667-42.667zM170.667 576h213.333v213.333h-213.333v-213.333zM896 490.667h-298.667c-25.6 0-42.667 17.067-42.667 42.667v298.667c0 25.6 17.067 42.667 42.667 42.667h298.667c25.6 0 42.667-17.067 42.667-42.667v-298.667c0-25.6-17.067-42.667-42.667-42.667zM640 576h213.333v213.333h-213.333v-213.333zM896 21.333h-298.667c-25.6 0-42.667 17.067-42.667 42.667v298.667c0 25.6 17.067 42.667 42.667 42.667h298.667c25.6 0 42.667-17.067 42.667-42.667v-298.667c0-25.6-17.067-42.667-42.667-42.667zM640 106.667h213.333v213.333h-213.333v-213.333zM426.667 21.333h-298.667c-25.6 0-42.667 17.067-42.667 42.667v298.667c0 25.6 17.067 42.667 42.667 42.667h298.667c25.6 0 42.667-17.067 42.667-42.667v-298.667c0-25.6-17.067-42.667-42.667-42.667zM170.667 106.667h213.333v213.333h-213.333v-213.333z" />
<glyph unicode="&#xe879;" glyph-name="home" d="M921.6 610.133l-384 298.667c-12.8 12.8-34.133 12.8-51.2 0l-384-298.667c-12.8-8.533-17.067-21.333-17.067-34.133v-469.333c0-72.533 55.467-128 128-128h42.667v85.333h-42.667c-25.6 0-42.667 17.067-42.667 42.667v448l341.333 264.533 341.333-264.533v-448c0-25.6-17.067-42.667-42.667-42.667h-29.867v-85.333h29.867c72.533 0 128 55.467 128 128v469.333c0 12.8-4.267 25.6-17.067 34.133zM256 64h524.8v-85.333h-524.8v85.333zM426.667 405.333h170.667v-341.333h85.333v384c0 25.6-17.067 42.667-42.667 42.667h-256c-25.6 0-42.667-17.067-42.667-42.667v-384h85.333v341.333z" />
<glyph unicode="&#xe87d;" glyph-name="inbox" d="M597.333 277.333h-170.667c-12.8 0-25.6 8.533-34.133 17.067l-72.533 110.933h-234.667c-25.6 0-42.667 17.067-42.667 42.667s17.067 42.667 42.667 42.667h256c12.8 0 25.6-8.533 34.133-17.067l72.533-110.933h123.733l72.533 110.933c8.533 12.8 21.333 17.067 34.133 17.067h256c25.6 0 42.667-17.067 42.667-42.667s-17.067-42.667-42.667-42.667h-234.667l-72.533-110.933c-4.267-8.533-17.067-17.067-29.867-17.067zM853.333 64h-682.667c-72.533 0-128 55.467-128 128v256c0 8.533 0 12.8 4.267 17.067l145.067 294.4c25.6 46.933 68.267 72.533 115.2 72.533h405.333c46.933 0 93.867-25.6 115.2-72.533l145.067-294.4c8.533-4.267 8.533-8.533 8.533-17.067v-256c0-72.533-55.467-128-128-128zM128 439.467v-247.467c0-25.6 17.067-42.667 42.667-42.667h682.667c25.6 0 42.667 17.067 42.667 42.667v247.467l-140.8 285.867c-8.533 12.8-25.6 21.333-38.4 21.333h-409.6c-12.8 0-29.867-8.533-38.4-25.6 0 0 0 0 0 0l-140.8-281.6zM234.667 742.4v0 0z" />
<glyph unicode="&#xe87f;" glyph-name="info" d="M512-21.333c-260.267 0-469.333 209.067-469.333 469.333s209.067 469.333 469.333 469.333 469.333-209.067 469.333-469.333-209.067-469.333-469.333-469.333zM512 832c-213.333 0-384-170.667-384-384s170.667-384 384-384c213.333 0 384 170.667 384 384s-170.667 384-384 384zM512 234.667c-25.6 0-42.667 17.067-42.667 42.667v170.667c0 25.6 17.067 42.667 42.667 42.667s42.667-17.067 42.667-42.667v-170.667c0-25.6-17.067-42.667-42.667-42.667zM512 576c-4.267 0-12.8 0-17.067 4.267s-8.533 4.267-12.8 8.533c-8.533 8.533-12.8 17.067-12.8 29.867 0 4.267 0 4.267 0 8.533s0 4.267 4.267 8.533c0 4.267 4.267 4.267 4.267 8.533s4.267 4.267 4.267 4.267c4.267 4.267 8.533 8.533 12.8 8.533 17.067 8.533 34.133 4.267 46.933-8.533 0 0 4.267-4.267 4.267-4.267 0-4.267 4.267-4.267 4.267-8.533s0-4.267 4.267-8.533c0-4.267 0-4.267 0-8.533 0-12.8-4.267-21.333-12.8-29.867-4.267 0-4.267-4.267-4.267-4.267-4.267 0-4.267-4.267-8.533-4.267s-4.267 0-8.533-4.267c-4.267 0-4.267 0-8.533 0z" />
<glyph unicode="&#xe880;" glyph-name="unlock" d="M810.667-21.333h-597.333c-72.533 0-128 55.467-128 128v298.667c0 72.533 55.467 128 128 128h597.333c72.533 0 128-55.467 128-128v-298.667c0-72.533-55.467-128-128-128zM213.333 448c-25.6 0-42.667-17.067-42.667-42.667v-298.667c0-25.6 17.067-42.667 42.667-42.667h597.333c25.6 0 42.667 17.067 42.667 42.667v298.667c0 25.6-17.067 42.667-42.667 42.667h-597.333zM298.667 448c-25.6 0-42.667 17.067-42.667 42.667v170.667c0 68.267 25.6 132.267 76.8 179.2 46.933 51.2 110.933 76.8 179.2 76.8 0 0 0 0 0 0 119.467 0 226.133-85.333 251.733-204.8 4.267-21.333-12.8-46.933-34.133-51.2s-46.933 8.533-51.2 34.133c-17.067 81.067-85.333 136.533-166.4 136.533 0 0 0 0 0 0-46.933 0-89.6-17.067-119.467-51.2-34.133-29.867-51.2-72.533-51.2-119.467v-170.667c0-25.6-17.067-42.667-42.667-42.667z" />
<glyph unicode="&#xe881;" glyph-name="unlink" d="M768 192h-128c-25.6 0-42.667 17.067-42.667 42.667s17.067 42.667 42.667 42.667h128c93.867 0 170.667 76.8 170.667 170.667s-76.8 170.667-170.667 170.667h-128c-25.6 0-42.667 17.067-42.667 42.667s17.067 42.667 42.667 42.667h128c140.8 0 256-115.2 256-256s-115.2-256-256-256zM384 192h-128c-140.8 0-256 115.2-256 256s115.2 256 256 256h128c25.6 0 42.667-17.067 42.667-42.667s-17.067-42.667-42.667-42.667h-128c-93.867 0-170.667-76.8-170.667-170.667s76.8-170.667 170.667-170.667h128c25.6 0 42.667-17.067 42.667-42.667s-17.067-42.667-42.667-42.667zM682.667 405.333h-341.333c-25.6 0-42.667 17.067-42.667 42.667s17.067 42.667 42.667 42.667h341.333c25.6 0 42.667-17.067 42.667-42.667s-17.067-42.667-42.667-42.667zM298.667-29.867c-8.533 0-12.8 0-21.333 4.267-21.333 8.533-29.867 38.4-17.067 55.467l448 887.467c8.533 21.333 34.133 29.867 55.467 17.067 21.333-8.533 29.867-38.4 17.067-55.467l-443.733-883.2c-8.533-17.067-21.333-25.6-38.4-25.6z" />
<glyph unicode="&#xe882;" glyph-name="link-2" d="M768 192h-128c-25.6 0-42.667 17.067-42.667 42.667s17.067 42.667 42.667 42.667h128c93.867 0 170.667 76.8 170.667 170.667s-76.8 170.667-170.667 170.667h-128c-25.6 0-42.667 17.067-42.667 42.667s17.067 42.667 42.667 42.667h128c140.8 0 256-115.2 256-256s-115.2-256-256-256zM384 192h-128c-140.8 0-256 115.2-256 256s115.2 256 256 256h128c25.6 0 42.667-17.067 42.667-42.667s-17.067-42.667-42.667-42.667h-128c-93.867 0-170.667-76.8-170.667-170.667s76.8-170.667 170.667-170.667h128c25.6 0 42.667-17.067 42.667-42.667s-17.067-42.667-42.667-42.667zM682.667 405.333h-341.333c-25.6 0-42.667 17.067-42.667 42.667s17.067 42.667 42.667 42.667h341.333c25.6 0 42.667-17.067 42.667-42.667s-17.067-42.667-42.667-42.667z" />
<glyph unicode="&#xe883;" glyph-name="life-buoy" d="M512-21.333c-260.267 0-469.333 209.067-469.333 469.333s209.067 469.333 469.333 469.333 469.333-209.067 469.333-469.333-209.067-469.333-469.333-469.333zM512 832c-213.333 0-384-170.667-384-384s170.667-384 384-384c213.333 0 384 170.667 384 384s-170.667 384-384 384zM512 234.667c-119.467 0-213.333 93.867-213.333 213.333s93.867 213.333 213.333 213.333 213.333-93.867 213.333-213.333-93.867-213.333-213.333-213.333zM512 576c-72.533 0-128-55.467-128-128s55.467-128 128-128 128 55.467 128 128-55.467 128-128 128zM392.533 524.8c-12.8 0-21.333 4.267-29.867 12.8l-183.467 183.467c-17.067 17.067-17.067 42.667 0 59.733s42.667 17.067 59.733 0l179.2-179.2c17.067-17.067 17.067-42.667 0-59.733-4.267-12.8-17.067-17.067-25.6-17.067zM814.933 102.4c-12.8 0-21.333 4.267-29.867 12.8l-179.2 179.2c-17.067 17.067-17.067 42.667 0 59.733s42.667 17.067 59.733 0l179.2-179.2c17.067-17.067 17.067-42.667 0-59.733-8.533-8.533-21.333-12.8-29.867-12.8zM631.467 524.8c-12.8 0-21.333 4.267-29.867 12.8-17.067 17.067-17.067 42.667 0 59.733l179.2 179.2c17.067 17.067 42.667 17.067 59.733 0s17.067-42.667 0-59.733l-179.2-179.2c-8.533-8.533-17.067-12.8-29.867-12.8zM631.467 524.8c-12.8 0-21.333 4.267-29.867 12.8-17.067 17.067-17.067 42.667 0 59.733l149.333 149.333c17.067 17.067 42.667 17.067 59.733 0s17.067-42.667 0-59.733l-149.333-149.333c-8.533-8.533-17.067-12.8-29.867-12.8zM209.067 102.4c-12.8 0-21.333 4.267-29.867 12.8-17.067 17.067-17.067 42.667 0 59.733l179.2 179.2c17.067 17.067 42.667 17.067 59.733 0s17.067-42.667 0-59.733l-179.2-179.2c-8.533-8.533-17.067-12.8-29.867-12.8z" />
<glyph unicode="&#xe884;" glyph-name="link" d="M597.333 277.333c-76.8 0-153.6 34.133-204.8 102.4-12.8 17.067-8.533 46.933 8.533 59.733s46.933 8.533 59.733-8.533c55.467-76.8 162.133-89.6 238.933-34.133 8.533 4.267 12.8 8.533 17.067 17.067l128 128c64 68.267 64 174.933-4.267 238.933s-170.667 64-238.933 0l-72.533-72.533c-17.067-17.067-42.667-17.067-59.733 0s-17.067 42.667 0 59.733l72.533 72.533c98.133 98.133 256 98.133 354.133 0 102.4-98.133 102.4-260.267 4.267-362.667l-128-128c-8.533-8.533-17.067-17.067-29.867-25.6-38.4-29.867-89.6-46.933-145.067-46.933zM302.933-17.067c-64 0-128 25.6-179.2 72.533-102.4 98.133-102.4 260.267-4.267 362.667l128 128c8.533 4.267 17.067 12.8 25.6 21.333 55.467 42.667 123.733 59.733 187.733 46.933 68.267-8.533 128-46.933 166.4-98.133 12.8-17.067 8.533-46.933-8.533-59.733s-46.933-8.533-59.733 8.533c-25.6 38.4-68.267 59.733-110.933 68.267-46.933 8.533-89.6-4.267-128-34.133-8.533-4.267-12.8-8.533-17.067-17.067l-128-128c-64-68.267-64-174.933 4.267-238.933s170.667-64 238.933 0l72.533 72.533c17.067 17.067 42.667 17.067 59.733 0s17.067-42.667 0-59.733l-72.533-72.533c-46.933-51.2-110.933-72.533-174.933-72.533z" />
<glyph unicode="&#xe886;" glyph-name="list" d="M896 661.333h-554.667c-25.6 0-42.667 17.067-42.667 42.667s17.067 42.667 42.667 42.667h554.667c25.6 0 42.667-17.067 42.667-42.667s-17.067-42.667-42.667-42.667zM896 405.333h-554.667c-25.6 0-42.667 17.067-42.667 42.667s17.067 42.667 42.667 42.667h554.667c25.6 0 42.667-17.067 42.667-42.667s-17.067-42.667-42.667-42.667zM896 149.333h-554.667c-25.6 0-42.667 17.067-42.667 42.667s17.067 42.667 42.667 42.667h554.667c25.6 0 42.667-17.067 42.667-42.667s-17.067-42.667-42.667-42.667zM128 661.333c-4.267 0-4.267 0-8.533 0s-4.267 0-8.533 4.267c-4.267 0-4.267 4.267-8.533 4.267s-4.267 4.267-4.267 4.267-4.267 4.267-4.267 4.267c0 4.267-4.267 4.267-4.267 8.533-4.267 4.267-4.267 4.267-4.267 8.533s0 4.267 0 8.533 0 12.8 4.267 17.067c4.267 4.267 4.267 8.533 8.533 12.8 12.8 12.8 29.867 17.067 46.933 8.533 4.267-4.267 8.533-4.267 12.8-8.533 8.533-8.533 12.8-17.067 12.8-29.867 0-4.267 0-4.267 0-8.533s0-4.267-4.267-8.533c0-4.267-4.267-4.267-4.267-8.533 0 0-4.267-4.267-4.267-4.267-8.533-8.533-17.067-12.8-29.867-12.8zM128 405.333c-4.267 0-4.267 0-8.533 0s-4.267 0-8.533 4.267c-4.267 0-4.267 4.267-8.533 4.267s-4.267 4.267-4.267 4.267c-8.533 8.533-12.8 17.067-12.8 29.867 0 4.267 0 12.8 4.267 17.067s4.267 8.533 8.533 12.8c0 0 4.267 4.267 4.267 4.267 4.267 0 4.267 4.267 8.533 4.267s4.267 0 8.533 4.267c12.8 4.267 29.867 0 38.4-12.8 4.267-4.267 8.533-8.533 8.533-12.8 4.267-4.267 4.267-12.8 4.267-17.067s0-4.267 0-8.533 0-4.267-4.267-8.533c0-4.267-4.267-4.267-4.267-8.533 0 0-4.267-4.267-4.267-4.267-8.533-8.533-17.067-12.8-29.867-12.8zM128 149.333c-4.267 0-12.8 0-17.067 4.267-4.267 0-8.533 4.267-12.8 8.533-8.533 8.533-12.8 17.067-12.8 29.867 0 4.267 0 12.8 4.267 17.067s4.267 8.533 8.533 12.8c12.8 12.8 29.867 17.067 46.933 8.533 4.267 0 8.533-4.267 12.8-8.533s8.533-8.533 8.533-12.8c4.267-4.267 4.267-12.8 4.267-17.067s0-12.8-4.267-17.067c-4.267-4.267-4.267-8.533-8.533-12.8-8.533-8.533-17.067-12.8-29.867-12.8z" />
<glyph unicode="&#xe887;" glyph-name="lock" d="M810.667-21.333h-597.333c-72.533 0-128 55.467-128 128v298.667c0 72.533 55.467 128 128 128h597.333c72.533 0 128-55.467 128-128v-298.667c0-72.533-55.467-128-128-128zM213.333 448c-25.6 0-42.667-17.067-42.667-42.667v-298.667c0-25.6 17.067-42.667 42.667-42.667h597.333c25.6 0 42.667 17.067 42.667 42.667v298.667c0 25.6-17.067 42.667-42.667 42.667h-597.333zM725.333 448c-25.6 0-42.667 17.067-42.667 42.667v170.667c0 93.867-76.8 170.667-170.667 170.667s-170.667-76.8-170.667-170.667v-170.667c0-25.6-17.067-42.667-42.667-42.667s-42.667 17.067-42.667 42.667v170.667c0 140.8 115.2 256 256 256s256-115.2 256-256v-170.667c0-25.6-17.067-42.667-42.667-42.667z" />
<glyph unicode="&#xe888;" glyph-name="log-out" d="M384 21.333h-170.667c-72.533 0-128 55.467-128 128v597.333c0 72.533 55.467 128 128 128h170.667c25.6 0 42.667-17.067 42.667-42.667s-17.067-42.667-42.667-42.667h-170.667c-25.6 0-42.667-17.067-42.667-42.667v-597.333c0-25.6 17.067-42.667 42.667-42.667h170.667c25.6 0 42.667-17.067 42.667-42.667s-17.067-42.667-42.667-42.667zM682.667 192c-12.8 0-21.333 4.267-29.867 12.8-17.067 17.067-17.067 42.667 0 59.733l183.467 183.467-183.467 183.467c-17.067 17.067-17.067 42.667 0 59.733s42.667 17.067 59.733 0l213.333-213.333c17.067-17.067 17.067-42.667 0-59.733l-213.333-213.333c-8.533-8.533-17.067-12.8-29.867-12.8zM896 405.333h-512c-25.6 0-42.667 17.067-42.667 42.667s17.067 42.667 42.667 42.667h512c25.6 0 42.667-17.067 42.667-42.667s-17.067-42.667-42.667-42.667z" />
<glyph unicode="&#xe88a;" glyph-name="mail" d="M853.333 64h-682.667c-72.533 0-128 55.467-128 128v512c0 72.533 55.467 128 128 128h682.667c72.533 0 128-55.467 128-128v-512c0-72.533-55.467-128-128-128zM170.667 746.667c-25.6 0-42.667-17.067-42.667-42.667v-512c0-25.6 17.067-42.667 42.667-42.667h682.667c25.6 0 42.667 17.067 42.667 42.667v512c0 25.6-17.067 42.667-42.667 42.667h-682.667zM512 362.667c-8.533 0-17.067 4.267-25.6 8.533l-426.667 298.667c-17.067 12.8-21.333 38.4-8.533 59.733 12.8 17.067 38.4 21.333 59.733 8.533l401.067-281.6 401.067 281.6c21.333 12.8 46.933 8.533 59.733-8.533 12.8-21.333 8.533-46.933-8.533-59.733l-426.667-298.667c-8.533-4.267-17.067-8.533-25.6-8.533z" />
<glyph unicode="&#xe88c;" glyph-name="map" d="M682.667-21.333c-8.533 0-12.8 0-17.067 4.267l-324.267 162.133-277.333-157.867c-12.8-8.533-29.867-8.533-42.667 0-12.8 4.267-21.333 17.067-21.333 34.133v682.667c0 17.067 8.533 29.867 21.333 38.4l298.667 170.667c12.8 4.267 25.6 4.267 38.4 0l324.267-162.133 277.333 157.867c12.8 8.533 29.867 8.533 42.667 0 12.8-4.267 21.333-17.067 21.333-34.133v-682.667c0-17.067-8.533-29.867-21.333-38.4l-298.667-170.667c-8.533-4.267-12.8-4.267-21.333-4.267zM341.333 234.667c8.533 0 12.8 0 17.067-4.267l320-162.133 256 145.067v588.8l-234.667-132.267c-12.8-8.533-25.6-8.533-38.4 0l-320 157.867-256-149.333v-584.533l234.667 132.267c8.533 8.533 12.8 8.533 21.333 8.533zM640 695.467h85.333v-627.2h-85.333v627.2zM298.667 827.733h81.067v-622.933h-81.067v622.933z" />
<glyph unicode="&#xe890;" glyph-name="message-circle" d="M128 21.333c-12.8 0-21.333 4.267-29.867 12.8-12.8 12.8-17.067 29.867-8.533 42.667l76.8 226.133c-25.6 51.2-38.4 110.933-38.4 166.4 0 153.6 85.333 294.4 226.133 362.667 55.467 29.867 119.467 42.667 179.2 42.667 0 0 0 0 0 0h21.333c209.067-12.8 371.2-174.933 384-379.733v-25.6c0-64-12.8-123.733-42.667-183.467-68.267-136.533-209.067-221.867-362.667-221.867-55.467 0-115.2 12.8-166.4 34.133l-226.133-76.8c-4.267 0-8.533 0-12.8 0zM533.333 789.333c-51.2 0-98.133-12.8-140.8-34.133-110.933-55.467-179.2-162.133-179.2-285.867 0-51.2 12.8-98.133 34.133-140.8 4.267-8.533 4.267-21.333 4.267-34.133l-55.467-162.133 162.133 55.467c12.8 4.267 21.333 4.267 34.133-4.267 42.667-21.333 93.867-34.133 140.8-34.133 123.733 0 230.4 68.267 285.867 174.933 21.333 42.667 34.133 93.867 34.133 140.8 0 0 0 0 0 0v25.6c-8.533 162.133-136.533 290.133-302.933 298.667h-17.067c0 0 0 0 0 0z" />
<glyph unicode="&#xe89b;" glyph-name="more-horizontal" d="M597.333 448c0-47.128-38.205-85.333-85.333-85.333s-85.333 38.205-85.333 85.333c0 47.128 38.205 85.333 85.333 85.333s85.333-38.205 85.333-85.333zM896 448c0-47.128-38.205-85.333-85.333-85.333s-85.333 38.205-85.333 85.333c0 47.128 38.205 85.333 85.333 85.333s85.333-38.205 85.333-85.333zM298.667 448c0-47.128-38.205-85.333-85.333-85.333s-85.333 38.205-85.333 85.333c0 47.128 38.205 85.333 85.333 85.333s85.333-38.205 85.333-85.333z" />
<glyph unicode="&#xe89c;" glyph-name="move" d="M213.333 277.333c-12.8 0-21.333 4.267-29.867 12.8l-128 128c-17.067 17.067-17.067 42.667 0 59.733l128 128c17.067 17.067 42.667 17.067 59.733 0s17.067-42.667 0-59.733l-98.133-98.133 98.133-98.133c17.067-17.067 17.067-42.667 0-59.733-8.533-8.533-17.067-12.8-29.867-12.8zM640 704c-12.8 0-21.333 4.267-29.867 12.8l-98.133 98.133-98.133-98.133c-17.067-17.067-42.667-17.067-59.733 0s-17.067 42.667 0 59.733l128 128c17.067 17.067 42.667 17.067 59.733 0l128-128c17.067-17.067 17.067-42.667 0-59.733-8.533-8.533-17.067-12.8-29.867-12.8zM512-21.333c-12.8 0-21.333 4.267-29.867 12.8l-128 128c-17.067 17.067-17.067 42.667 0 59.733s42.667 17.067 59.733 0l98.133-98.133 98.133 98.133c17.067 17.067 42.667 17.067 59.733 0s17.067-42.667 0-59.733l-128-128c-8.533-8.533-17.067-12.8-29.867-12.8zM810.667 277.333c-12.8 0-21.333 4.267-29.867 12.8-17.067 17.067-17.067 42.667 0 59.733l98.133 98.133-98.133 98.133c-17.067 17.067-17.067 42.667 0 59.733s42.667 17.067 59.733 0l128-128c17.067-17.067 17.067-42.667 0-59.733l-128-128c-8.533-8.533-17.067-12.8-29.867-12.8zM938.667 405.333h-853.333c-25.6 0-42.667 17.067-42.667 42.667s17.067 42.667 42.667 42.667h853.333c25.6 0 42.667-17.067 42.667-42.667s-17.067-42.667-42.667-42.667zM512-21.333c-25.6 0-42.667 17.067-42.667 42.667v853.333c0 25.6 17.067 42.667 42.667 42.667s42.667-17.067 42.667-42.667v-853.333c0-25.6-17.067-42.667-42.667-42.667z" />
<glyph unicode="&#xe8a1;" glyph-name="package" d="M913.067 768l-341.333 170.667c-38.4 17.067-81.067 17.067-115.2 0l-51.2-25.6 29.867-81.067 59.733 29.867c4.267 4.267 8.533 4.267 17.067 4.267s12.8-4.267 17.067-4.267l341.333-170.667c17.067-8.533 25.6-21.333 25.6-38.4v-405.333c0-17.067-12.8-29.867-25.6-38.4l-341.333-170.667c-12.8-4.267-25.6-4.267-38.4 0l-341.333 170.667c-12.8 8.533-21.333 21.333-21.333 38.4v405.333c0 12.8 8.533 29.867 25.6 38.4l281.6 140.8-226.133-106.667-17.067 81.067-76.8-38.4c-46.933-21.333-72.533-68.267-72.533-115.2v-409.6c0-46.933 29.867-93.867 72.533-115.2l341.333-170.667c17.067-8.533 34.133-12.8 55.467-12.8s38.4 4.267 59.733 17.067l341.333 170.667c46.933 21.333 72.533 68.267 72.533 115.2v405.333c0 51.2-29.867 93.867-72.533 115.2zM435.2 832l-29.867 81.067-213.333-106.667 17.067-81.067zM614.4 588.8l-102.4-51.2-320 157.867c-21.333 12.8-46.933 4.267-59.733-17.067-8.533-21.333 0-46.933 21.333-59.733l341.333-166.4c4.267-4.267 8.533-4.267 17.067-4.267s12.8 0 17.067 8.533l59.733 29.867v89.6l25.6 12.8zM891.733 682.667c-8.533 17.067-34.133 25.6-55.467 17.067l-51.2-25.6 42.667-68.267 46.933 21.333c17.067 8.533 25.6 34.133 17.067 55.467zM614.4 588.8l-25.6-12.8v-89.6l238.933 119.467-42.667 68.267zM469.333 490.667h85.333v-456.533h-85.333v456.533zM725.333 644.267l-332.8 166.4-98.133-46.933 337.067-166.4z" />
<glyph unicode="&#xe8a5;" glyph-name="phone-call" d="M853.333-17.067c-4.267 0-8.533 0-12.8 0-136.533 17.067-273.067 64-388.267 136.533-106.667 68.267-200.533 162.133-268.8 268.8-76.8 115.2-123.733 251.733-136.533 388.267 0 34.133 8.533 68.267 29.867 93.867s51.2 42.667 85.333 46.933c4.267 0 8.533 0 12.8 0h128c0 0 0 0 0 0 64 0 119.467-46.933 128-110.933 4.267-38.4 12.8-76.8 25.6-110.933 17.067-46.933 4.267-98.133-29.867-136.533l-29.867-29.867c51.2-76.8 115.2-145.067 196.267-196.267l29.867 29.867c34.133 34.133 89.6 46.933 136.533 29.867 34.133-12.8 72.533-21.333 110.933-25.6 64-8.533 110.933-64 110.933-128v-128c0-34.133-12.8-68.267-38.4-89.6s-55.467-38.4-89.6-38.4c0 0 0 0 0 0zM302.933 832c0 0 0 0 0 0h-128c-12.8 0-25.6-8.533-34.133-17.067-4.267-8.533-8.533-17.067-8.533-29.867 12.8-123.733 55.467-243.2 123.733-349.867 64-98.133 145.067-183.467 243.2-243.2 106.667-68.267 226.133-110.933 349.867-123.733 17.067 0 25.6 4.267 34.133 12.8s12.8 17.067 12.8 29.867v128c0 0 0 0 0 0 0 21.333-17.067 38.4-38.4 42.667-42.667 4.267-85.333 17.067-128 34.133-17.067 4.267-34.133 4.267-46.933-8.533l-55.467-55.467c-12.8-12.8-34.133-17.067-51.2-8.533-115.2 64-209.067 157.867-273.067 273.067-4.267 17.067 0 38.4 12.8 51.2l55.467 55.467c8.533 8.533 12.8 29.867 8.533 42.667-17.067 42.667-25.6 85.333-34.133 128 0 21.333-21.333 38.4-42.667 38.4zM810.667 533.333c-21.333 0-38.4 12.8-42.667 34.133-12.8 68.267-68.267 119.467-136.533 136.533-21.333 4.267-38.4 25.6-34.133 51.2 4.267 21.333 25.6 38.4 51.2 34.133 102.4-21.333 183.467-98.133 200.533-200.533 4.267-21.333-8.533-46.933-34.133-51.2 0 0 0-4.267-4.267-4.267zM981.333 537.6c-21.333 0-38.4 17.067-42.667 38.4-17.067 157.867-140.8 281.6-302.933 302.933-21.333 4.267-38.4 25.6-38.4 46.933 4.267 21.333 25.6 38.4 46.933 38.4 200.533-21.333 354.133-174.933 375.467-375.467 4.267-21.333-12.8-42.667-38.4-46.933 4.267-4.267 0-4.267 0-4.267z" />
<glyph unicode="&#xe8ac;" glyph-name="pie-chart" d="M512-21.333c-59.733 0-123.733 12.8-183.467 38.4-238.933 102.4-349.867 375.467-247.467 614.4 46.933 110.933 132.267 200.533 243.2 247.467 21.333 8.533 46.933 0 55.467-21.333s0-46.933-21.333-55.467c-89.6-42.667-162.133-115.2-200.533-204.8-81.067-196.267 8.533-422.4 204.8-503.467s422.4 8.533 503.467 204.8c8.533 21.333 34.133 29.867 55.467 21.333s29.867-34.133 21.333-55.467c-72.533-179.2-247.467-285.867-430.933-285.867zM938.667 405.333h-426.667c-25.6 0-42.667 17.067-42.667 42.667v426.667c0 25.6 17.067 42.667 42.667 42.667 260.267 0 469.333-209.067 469.333-469.333 0-25.6-17.067-42.667-42.667-42.667zM554.667 490.667h337.067c-21.333 179.2-162.133 320-337.067 337.067v-337.067z" />
<glyph unicode="&#xe8ae;" glyph-name="refresh-cw" d="M981.333 490.667h-256c-25.6 0-42.667 17.067-42.667 42.667s17.067 42.667 42.667 42.667h213.333v213.333c0 25.6 17.067 42.667 42.667 42.667s42.667-17.067 42.667-42.667v-256c0-25.6-17.067-42.667-42.667-42.667zM42.667 64c-25.6 0-42.667 17.067-42.667 42.667v256c0 25.6 17.067 42.667 42.667 42.667h256c25.6 0 42.667-17.067 42.667-42.667s-17.067-42.667-42.667-42.667h-213.333v-213.333c0-25.6-17.067-42.667-42.667-42.667zM512 21.333c0 0 0 0 0 0-115.2 0-221.867 42.667-302.933 123.733l-196.267 183.467c-17.067 17.067-17.067 42.667 0 59.733s42.667 17.067 59.733 0l196.267-187.733c68.267-59.733 153.6-93.867 243.2-93.867 0 0 0 0 0 0 89.6 0 174.933 34.133 243.2 98.133 34.133 34.133 64 81.067 81.067 128 8.533 21.333 34.133 34.133 55.467 25.6s34.133-34.133 25.6-55.467c-21.333-59.733-55.467-115.2-102.4-157.867-81.067-81.067-187.733-123.733-302.933-123.733zM981.333 490.667c-8.533 0-21.333 4.267-29.867 12.8l-196.267 187.733c-38.4 38.4-81.067 64-128 81.067-85.333 29.867-179.2 25.6-260.267-12.8-85.333-42.667-145.067-110.933-174.933-196.267-8.533-21.333-34.133-34.133-55.467-25.6-21.333 4.267-34.133 29.867-25.6 51.2 38.4 110.933 115.2 196.267 217.6 243.2 102.4 51.2 217.6 55.467 324.267 17.067 59.733-21.333 115.2-55.467 157.867-102.4l196.267-183.467c17.067-17.067 17.067-42.667 0-59.733-4.267-8.533-12.8-12.8-25.6-12.8z" />
<glyph unicode="&#xe8b1;" glyph-name="plus" d="M512 106.667c-25.6 0-42.667 17.067-42.667 42.667v597.333c0 25.6 17.067 42.667 42.667 42.667s42.667-17.067 42.667-42.667v-597.333c0-25.6-17.067-42.667-42.667-42.667zM810.667 405.333h-597.333c-25.6 0-42.667 17.067-42.667 42.667s17.067 42.667 42.667 42.667h597.333c25.6 0 42.667-17.067 42.667-42.667s-17.067-42.667-42.667-42.667z" />
<glyph unicode="&#xe8bc;" glyph-name="save" d="M925.867 648.533l-213.333 213.333c-8.533 8.533-17.067 12.8-29.867 12.8h-469.333c-72.533 0-128-55.467-128-128v-597.333c0-25.6 8.533-46.933 17.067-64v21.333h110.933c-25.6 0-42.667 17.067-42.667 42.667v597.333c0 25.6 17.067 42.667 42.667 42.667h452.267l187.733-187.733v-452.267c0-25.6-17.067-42.667-42.667-42.667h76.8v-59.733c29.867 21.333 51.2 59.733 51.2 102.4v469.333c0 12.8-4.267 21.333-12.8 29.867zM810.667 106.667h-708.267v-21.333c21.333-38.4 64-64 110.933-64h597.333c29.867 0 55.467 8.533 76.8 25.6v59.733h-76.8zM341.333 362.667h341.333v-256h85.333v298.667c0 25.6-17.067 42.667-42.667 42.667h-426.667c-25.6 0-42.667-17.067-42.667-42.667v-298.667h85.333v256zM640 576h-341.333c-25.6 0-42.667 17.067-42.667 42.667v213.333c0 25.6 17.067 42.667 42.667 42.667s42.667-17.067 42.667-42.667v-170.667h298.667c25.6 0 42.667-17.067 42.667-42.667s-17.067-42.667-42.667-42.667z" />
<glyph unicode="&#xe8bd;" glyph-name="search" d="M469.333 106.667c-213.333 0-384 170.667-384 384s170.667 384 384 384c213.333 0 384-170.667 384-384s-170.667-384-384-384zM469.333 789.333c-166.4 0-298.667-132.267-298.667-298.667s132.267-298.667 298.667-298.667c166.4 0 298.667 132.267 298.667 298.667s-132.267 298.667-298.667 298.667zM896 21.333c-12.8 0-21.333 4.267-29.867 12.8l-183.467 183.467c-17.067 17.067-17.067 42.667 0 59.733s42.667 17.067 59.733 0l183.467-183.467c17.067-17.067 17.067-42.667 0-59.733-8.533-8.533-17.067-12.8-29.867-12.8z" />
<glyph unicode="&#xe8c0;" glyph-name="share-2" d="M768 576c-93.867 0-170.667 76.8-170.667 170.667s76.8 170.667 170.667 170.667 170.667-76.8 170.667-170.667-76.8-170.667-170.667-170.667zM768 832c-46.933 0-85.333-38.4-85.333-85.333s38.4-85.333 85.333-85.333 85.333 38.4 85.333 85.333-38.4 85.333-85.333 85.333zM256 277.333c-93.867 0-170.667 76.8-170.667 170.667s76.8 170.667 170.667 170.667 170.667-76.8 170.667-170.667c0-93.867-76.8-170.667-170.667-170.667zM256 533.333c-46.933 0-85.333-38.4-85.333-85.333s38.4-85.333 85.333-85.333 85.333 38.4 85.333 85.333c0 46.933-38.4 85.333-85.333 85.333zM768-21.333c-93.867 0-170.667 76.8-170.667 170.667s76.8 170.667 170.667 170.667 170.667-76.8 170.667-170.667-76.8-170.667-170.667-170.667zM768 234.667c-46.933 0-85.333-38.4-85.333-85.333s38.4-85.333 85.333-85.333 85.333 38.4 85.333 85.333-38.4 85.333-85.333 85.333zM657.067 170.667c-8.533 0-12.8 0-21.333 4.267l-290.133 170.667c-21.333 12.8-25.6 38.4-17.067 59.733 12.8 21.333 38.4 25.6 59.733 17.067l290.133-170.667c21.333-12.8 25.6-38.4 17.067-59.733-8.533-12.8-21.333-21.333-38.4-21.333zM366.933 469.333c-12.8 0-29.867 8.533-38.4 21.333-12.8 21.333-4.267 46.933 17.067 59.733l290.133 170.667c21.333 8.533 46.933 4.267 59.733-17.067s4.267-46.933-17.067-59.733l-290.133-170.667c-8.533 0-12.8-4.267-21.333-4.267z" />
<glyph unicode="&#xe8c2;" glyph-name="shield" d="M512-21.333c-8.533 0-12.8 0-17.067 4.267-17.067 8.533-366.933 187.733-366.933 465.067v298.667c0 17.067 12.8 34.133 25.6 38.4l341.333 128c8.533 4.267 21.333 4.267 29.867 0l341.333-128c17.067-4.267 29.867-21.333 29.867-38.4v-298.667c0-277.333-349.867-456.533-366.933-465.067-4.267-4.267-8.533-4.267-17.067-4.267zM213.333 716.8v-268.8c0-192 230.4-337.067 298.667-379.733 68.267 38.4 298.667 183.467 298.667 379.733v268.8l-298.667 110.933-298.667-110.933z" />
<glyph unicode="&#xe8c3;" glyph-name="settings" d="M512 277.333c-93.867 0-170.667 76.8-170.667 170.667s76.8 170.667 170.667 170.667c93.867 0 170.667-76.8 170.667-170.667s-76.8-170.667-170.667-170.667zM512 533.333c-46.933 0-85.333-38.4-85.333-85.333s38.4-85.333 85.333-85.333c46.933 0 85.333 38.4 85.333 85.333s-38.4 85.333-85.333 85.333zM516.267-64c-72.533 0-128 55.467-128 128 0 12.8-8.533 25.6-17.067 29.867-12.8 4.267-25.6 4.267-34.133-4.267-51.2-51.2-132.267-51.2-183.467-4.267 0 0 0 0 0 0-25.6 25.6-38.4 55.467-38.4 89.6s12.8 68.267 38.4 89.6c8.533 8.533 12.8 21.333 8.533 34.133-4.267 8.533-12.8 17.067-25.6 17.067h-8.533c-72.533 0-128 55.467-128 128s55.467 128 128 128c12.8 0 25.6 8.533 29.867 17.067 4.267 12.8 4.267 25.6-4.267 34.133-55.467 51.2-55.467 132.267-4.267 183.467s132.267 51.2 179.2 0c12.8-8.533 25.6-12.8 34.133-8.533 4.267 0 4.267 0 8.533 4.267 8.533 4.267 12.8 12.8 12.8 21.333v8.533c0 72.533 55.467 128 128 128s128-55.467 128-128c0-12.8 8.533-25.6 17.067-29.867 12.8-4.267 21.333-4.267 29.867 4.267 25.6 25.6 59.733 38.4 93.867 38.4 0 0 0 0 0 0 34.133 0 64-12.8 89.6-38.4 0 0 0 0 0 0v0c51.2-51.2 51.2-132.267 0-179.2-8.533-8.533-12.8-21.333-8.533-34.133 0-4.267 0-4.267 4.267-8.533s12.8-8.533 21.333-8.533h8.533c72.533 0 128-55.467 128-128s-55.467-128-128-128c-12.8 0-25.6-8.533-29.867-17.067 0 0 0 0 0 0-4.267-8.533-4.267-21.333 4.267-29.867 51.2-51.2 51.2-132.267 4.267-183.467-51.2-51.2-132.267-51.2-179.2 0-8.533 8.533-21.333 12.8-34.133 8.533-8.533-4.267-17.067-12.8-17.067-25.6v-8.533c0-72.533-59.733-128-128-128zM354.133 179.2c17.067 0 29.867-4.267 46.933-8.533 42.667-17.067 68.267-55.467 72.533-102.4 0 0 0-4.267 0-4.267 0-25.6 17.067-42.667 42.667-42.667s42.667 17.067 42.667 42.667v8.533c0 46.933 25.6 85.333 68.267 102.4s89.6 8.533 123.733-21.333c12.8-12.8 21.333-17.067 34.133-17.067 0 0 0 0 0 0 12.8 0 21.333 4.267 29.867 12.8s12.8 17.067 12.8 29.867c0 12.8-4.267 21.333-12.8 29.867-34.133 34.133-42.667 85.333-25.6 128s59.733 68.267 102.4 68.267c25.6 0 46.933 17.067 46.933 42.667s-17.067 42.667-42.667 42.667h-8.533c-46.933 0-85.333 25.6-102.4 68.267 0 4.267-4.267 8.533-4.267 12.8-12.8 38.4-4.267 85.333 25.6 115.2 21.333 21.333 21.333 46.933 4.267 64 0 0 0 0 0 0-8.533 8.533-17.067 12.8-29.867 12.8v0c-12.8 0-21.333-4.267-29.867-12.8-34.133-34.133-85.333-42.667-128-25.6s-68.267 59.733-68.267 102.4c0 29.867-17.067 46.933-42.667 46.933s-42.667-17.067-42.667-42.667v-8.533c0-46.933-25.6-85.333-68.267-102.4-4.267 0-8.533-4.267-12.8-4.267-38.4-12.8-85.333-4.267-115.2 25.6-21.333 21.333-46.933 21.333-64 4.267s-17.067-42.667 0-59.733c34.133-34.133 42.667-85.333 25.6-128s-55.467-68.267-102.4-72.533c0 0-4.267 0-4.267 0-25.6 0-42.667-17.067-42.667-42.667s17.067-42.667 42.667-42.667h8.533c46.933 0 85.333-25.6 102.4-68.267s8.533-89.6-21.333-123.733c-12.8-12.8-17.067-21.333-17.067-34.133s4.267-21.333 12.8-29.867v0c0 0 0 0 0 0 17.067-17.067 42.667-17.067 59.733 0 25.6 25.6 55.467 34.133 81.067 34.133zM827.733 320v0 0z" />
<glyph unicode="&#xe8cd;" glyph-name="star" d="M776.533 21.333c-8.533 0-12.8 0-21.333 4.267l-243.2 128-243.2-128c-12.8-8.533-29.867-4.267-46.933 4.267-12.8 8.533-21.333 25.6-17.067 42.667l46.933 273.067-196.267 187.733c-12.8 12.8-17.067 29.867-12.8 42.667 4.267 17.067 17.067 25.6 34.133 29.867l273.067 38.4 123.733 247.467c12.8 29.867 64 29.867 76.8 0l123.733-247.467 273.067-38.4c12.8 0 25.6-12.8 34.133-29.867 4.267-17.067 0-34.133-12.8-42.667l-196.267-192 46.933-273.067c4.267-17.067-4.267-34.133-17.067-42.667-8.533-4.267-17.067-4.267-25.6-4.267zM174.933 533.333l149.333-149.333c12.8-8.533 17.067-21.333 17.067-34.133l-34.133-209.067 187.733 98.133c12.8 8.533 25.6 8.533 38.4 0l187.733-98.133-38.4 209.067c-4.267 12.8 4.267 29.867 12.8 38.4l149.333 149.333-209.067 29.867c-12.8 0-25.6 12.8-34.133 21.333l-89.6 187.733-93.867-187.733c-4.267-12.8-17.067-21.333-29.867-21.333l-213.333-34.133z" />
<glyph unicode="&#xe8d2;" glyph-name="tag" d="M512 12.8c-34.133 0-64 12.8-89.6 38.4l-366.933 366.933c-8.533 8.533-12.8 17.067-12.8 29.867v426.667c0 25.6 17.067 42.667 42.667 42.667h426.667c12.8 0 21.333-4.267 29.867-12.8l366.933-366.933c51.2-51.2 51.2-132.267 0-179.2 0 0 0 0 0 0l-307.2-307.2c-25.6-25.6-55.467-38.4-89.6-38.4zM128 465.067l354.133-354.133c17.067-17.067 42.667-17.067 59.733 0l307.2 307.2c17.067 17.067 17.067 42.667 0 59.733l-354.133 354.133h-366.933v-366.933zM878.933 388.267v0 0zM298.667 618.667c-12.8 0-21.333 4.267-29.867 12.8-4.267 4.267-8.533 8.533-8.533 12.8-4.267 4.267-4.267 12.8-4.267 17.067s0 12.8 4.267 17.067c4.267 4.267 4.267 8.533 8.533 12.8s8.533 8.533 12.8 8.533c12.8 4.267 21.333 4.267 34.133 0 4.267-4.267 8.533-4.267 12.8-8.533 8.533-8.533 12.8-17.067 12.8-29.867s-4.267-21.333-12.8-29.867c-8.533-8.533-17.067-12.8-29.867-12.8z" />
<glyph unicode="&#xe8d4;" glyph-name="target" d="M512-21.333c-260.267 0-469.333 209.067-469.333 469.333s209.067 469.333 469.333 469.333 469.333-209.067 469.333-469.333-209.067-469.333-469.333-469.333zM512 832c-213.333 0-384-170.667-384-384s170.667-384 384-384c213.333 0 384 170.667 384 384s-170.667 384-384 384zM512 149.333c-166.4 0-298.667 132.267-298.667 298.667s132.267 298.667 298.667 298.667c166.4 0 298.667-132.267 298.667-298.667s-132.267-298.667-298.667-298.667zM512 661.333c-119.467 0-213.333-93.867-213.333-213.333s93.867-213.333 213.333-213.333 213.333 93.867 213.333 213.333-93.867 213.333-213.333 213.333zM512 320c-72.533 0-128 55.467-128 128s55.467 128 128 128 128-55.467 128-128-55.467-128-128-128zM512 490.667c-25.6 0-42.667-17.067-42.667-42.667s17.067-42.667 42.667-42.667 42.667 17.067 42.667 42.667-17.067 42.667-42.667 42.667z" />
<glyph unicode="&#xe8d6;" glyph-name="thumbs-up" d="M780.8-21.333c0 0 0 0 0 0h-610.133c-72.533 0-128 55.467-128 128v298.667c0 72.533 55.467 128 128 128h102.4l157.867 358.4c4.267 17.067 21.333 25.6 38.4 25.6 93.867 0 170.667-76.8 170.667-170.667v-128h200.533c8.533 0 12.8 0 21.333 0 34.133-4.267 64-21.333 85.333-51.2 21.333-25.6 29.867-59.733 21.333-93.867l-59.733-384c-12.8-64-64-110.933-128-110.933zM341.333 64h439.467c0 0 0 0 0 0 21.333 0 38.4 17.067 42.667 34.133l59.733 384c0 12.8 0 21.333-8.533 29.867s-17.067 17.067-29.867 17.067c-4.267 0-4.267 0-8.533 0h-238.933c-25.6 0-42.667 17.067-42.667 42.667v174.933c0 38.4-25.6 68.267-59.733 81.067l-153.6-345.6v-418.133zM170.667 448c-25.6 0-42.667-17.067-42.667-42.667v-298.667c0-25.6 17.067-42.667 42.667-42.667h85.333v384h-85.333z" />
<glyph unicode="&#xe8d9;" glyph-name="trash" d="M896 661.333h-768c-25.6 0-42.667 17.067-42.667 42.667s17.067 42.667 42.667 42.667h768c25.6 0 42.667-17.067 42.667-42.667s-17.067-42.667-42.667-42.667zM725.333-21.333h-426.667c-72.533 0-128 55.467-128 128v597.333c0 25.6 17.067 42.667 42.667 42.667s42.667-17.067 42.667-42.667v-597.333c0-25.6 17.067-42.667 42.667-42.667h426.667c25.6 0 42.667 17.067 42.667 42.667v597.333c0 25.6 17.067 42.667 42.667 42.667s42.667-17.067 42.667-42.667v-597.333c0-72.533-55.467-128-128-128zM682.667 661.333c-25.6 0-42.667 17.067-42.667 42.667v85.333c0 25.6-17.067 42.667-42.667 42.667h-170.667c-25.6 0-42.667-17.067-42.667-42.667v-85.333c0-25.6-17.067-42.667-42.667-42.667s-42.667 17.067-42.667 42.667v85.333c0 72.533 55.467 128 128 128h170.667c72.533 0 128-55.467 128-128v-85.333c0-25.6-17.067-42.667-42.667-42.667z" />
<glyph unicode="&#xe8dc;" glyph-name="trending-up" d="M42.667 149.333c-12.8 0-21.333 4.267-29.867 12.8-17.067 17.067-17.067 42.667 0 59.733l320 320c17.067 17.067 42.667 17.067 59.733 0l183.467-183.467 375.467 375.467c17.067 17.067 42.667 17.067 59.733 0s17.067-42.667 0-59.733l-405.333-405.333c-17.067-17.067-42.667-17.067-59.733 0l-183.467 183.467-290.133-290.133c-8.533-8.533-17.067-12.8-29.867-12.8zM981.333 405.333c-25.6 0-42.667 17.067-42.667 42.667v213.333h-213.333c-25.6 0-42.667 17.067-42.667 42.667s17.067 42.667 42.667 42.667h256c25.6 0 42.667-17.067 42.667-42.667v-256c0-25.6-17.067-42.667-42.667-42.667z" />
<glyph unicode="&#xe8df;" glyph-name="type" d="M853.333 618.667c-25.6 0-42.667 17.067-42.667 42.667v85.333h-597.333v-85.333c0-25.6-17.067-42.667-42.667-42.667s-42.667 17.067-42.667 42.667v128c0 25.6 17.067 42.667 42.667 42.667h682.667c25.6 0 42.667-17.067 42.667-42.667v-128c0-25.6-17.067-42.667-42.667-42.667zM640 64h-256c-25.6 0-42.667 17.067-42.667 42.667s17.067 42.667 42.667 42.667h256c25.6 0 42.667-17.067 42.667-42.667s-17.067-42.667-42.667-42.667zM512 64c-25.6 0-42.667 17.067-42.667 42.667v682.667c0 25.6 17.067 42.667 42.667 42.667s42.667-17.067 42.667-42.667v-682.667c0-25.6-17.067-42.667-42.667-42.667z" />
<glyph unicode="&#xe8e3;" glyph-name="upload-cloud" d="M512 21.333c-25.6 0-42.667 17.067-42.667 42.667v384c0 25.6 17.067 42.667 42.667 42.667s42.667-17.067 42.667-42.667v-384c0-25.6-17.067-42.667-42.667-42.667zM870.4 132.267c-17.067 0-29.867 8.533-38.4 21.333-12.8 21.333-4.267 46.933 17.067 59.733 38.4 21.333 68.267 59.733 81.067 102.4s8.533 89.6-12.8 128c-29.867 55.467-85.333 89.6-149.333 89.6h-55.467c-21.333 0-38.4 12.8-42.667 29.867-42.667 157.867-204.8 256-362.667 213.333-76.8-17.067-140.8-64-179.2-132.267-42.667-72.533-55.467-149.333-34.133-230.4 12.8-46.933 34.133-89.6 64-123.733 17.067-17.067 12.8-42.667-4.267-59.733s-42.667-12.8-59.733 4.267c-38.4 46.933-68.267 98.133-85.333 157.867-25.6 98.133-12.8 200.533 42.667 290.133s136.533 149.333 234.667 174.933c196.267 51.2 392.533-59.733 456.533-243.2h25.6c93.867 0 179.2-51.2 226.133-132.267 34.133-59.733 38.4-128 21.333-196.267-21.333-64-64-119.467-123.733-153.6-8.533 0-12.8 0-21.333 0zM682.667 234.667c-12.8 0-21.333 4.267-29.867 12.8l-140.8 140.8-140.8-140.8c-17.067-17.067-42.667-17.067-59.733 0s-17.067 42.667 0 59.733l170.667 170.667c17.067 17.067 42.667 17.067 59.733 0l170.667-170.667c17.067-17.067 17.067-42.667 0-59.733-8.533-8.533-17.067-12.8-29.867-12.8z" />
<glyph unicode="&#xe8e5;" glyph-name="check" d="M384 192c-12.8 0-21.333 4.267-29.867 12.8l-213.333 213.333c-17.067 17.067-17.067 42.667 0 59.733s42.667 17.067 59.733 0l183.467-183.467 439.467 439.467c17.067 17.067 42.667 17.067 59.733 0s17.067-42.667 0-59.733l-469.333-469.333c-8.533-8.533-17.067-12.8-29.867-12.8z" />
<glyph unicode="&#xe8e9;" glyph-name="user" d="M853.333 21.333c-25.6 0-42.667 17.067-42.667 42.667v85.333c0 72.533-55.467 128-128 128h-341.333c-72.533 0-128-55.467-128-128v-85.333c0-25.6-17.067-42.667-42.667-42.667s-42.667 17.067-42.667 42.667v85.333c0 119.467 93.867 213.333 213.333 213.333h341.333c119.467 0 213.333-93.867 213.333-213.333v-85.333c0-25.6-17.067-42.667-42.667-42.667zM512 448c-119.467 0-213.333 93.867-213.333 213.333s93.867 213.333 213.333 213.333 213.333-93.867 213.333-213.333-93.867-213.333-213.333-213.333zM512 789.333c-72.533 0-128-55.467-128-128s55.467-128 128-128 128 55.467 128 128-55.467 128-128 128z" />
<glyph unicode="&#xe8ea;" glyph-name="users" d="M725.333 21.333c-25.6 0-42.667 17.067-42.667 42.667v85.333c0 72.533-55.467 128-128 128h-341.333c-72.533 0-128-55.467-128-128v-85.333c0-25.6-17.067-42.667-42.667-42.667s-42.667 17.067-42.667 42.667v85.333c0 119.467 93.867 213.333 213.333 213.333h341.333c119.467 0 213.333-93.867 213.333-213.333v-85.333c0-25.6-17.067-42.667-42.667-42.667zM384 448c-119.467 0-213.333 93.867-213.333 213.333s93.867 213.333 213.333 213.333 213.333-93.867 213.333-213.333-93.867-213.333-213.333-213.333zM384 789.333c-72.533 0-128-55.467-128-128s55.467-128 128-128 128 55.467 128 128-55.467 128-128 128zM981.333 21.333c-25.6 0-42.667 17.067-42.667 42.667v85.333c0 59.733-38.4 110.933-98.133 123.733-21.333 4.267-38.4 29.867-29.867 51.2 4.267 21.333 29.867 38.4 51.2 29.867 93.867-25.6 157.867-110.933 162.133-204.8v-85.333c0-25.6-17.067-42.667-42.667-42.667zM682.667 452.267c-17.067 0-38.4 12.8-42.667 34.133s8.533 46.933 29.867 51.2c46.933 12.8 81.067 46.933 93.867 93.867 17.067 68.267-25.6 136.533-93.867 157.867-21.333 0-34.133 25.6-29.867 46.933s29.867 38.4 51.2 29.867c115.2-29.867 183.467-145.067 153.6-260.267-21.333-76.8-76.8-136.533-153.6-153.6 0 0-4.267 0-8.533 0z" />
<glyph unicode="&#xe8f8;" glyph-name="zap" d="M469.333-21.333c-4.267 0-12.8 0-17.067 4.267-17.067 8.533-25.6 25.6-25.6 42.667l38.4 294.4h-337.067c-17.067 0-29.867 8.533-38.4 25.6s-4.267 34.133 4.267 46.933l426.667 512c12.8 12.8 34.133 17.067 51.2 8.533s25.6-25.6 25.6-42.667l-38.4-294.4h337.067c17.067 0 29.867-8.533 38.4-25.6s4.267-34.133-4.267-46.933l-426.667-512c-8.533-8.533-21.333-12.8-34.133-12.8zM217.6 405.333h294.4c12.8 0 25.6-4.267 29.867-12.8 8.533-8.533 12.8-21.333 8.533-34.133l-25.6-196.267 273.067 328.533h-285.867c-12.8 0-25.6 4.267-29.867 12.8-8.533 8.533-12.8 21.333-8.533 34.133l25.6 196.267-281.6-328.533z" />
<glyph unicode="&#xe8f9;" glyph-name="zoom-in" d="M469.333 106.667c-213.333 0-384 170.667-384 384s170.667 384 384 384c213.333 0 384-170.667 384-384s-170.667-384-384-384zM469.333 789.333c-166.4 0-298.667-132.267-298.667-298.667s132.267-298.667 298.667-298.667c166.4 0 298.667 132.267 298.667 298.667s-132.267 298.667-298.667 298.667zM896 21.333c-12.8 0-21.333 4.267-29.867 12.8l-183.467 183.467c-17.067 17.067-17.067 42.667 0 59.733s42.667 17.067 59.733 0l183.467-183.467c17.067-17.067 17.067-42.667 0-59.733-8.533-8.533-17.067-12.8-29.867-12.8zM469.333 320c-25.6 0-42.667 17.067-42.667 42.667v256c0 25.6 17.067 42.667 42.667 42.667s42.667-17.067 42.667-42.667v-256c0-25.6-17.067-42.667-42.667-42.667zM597.333 448h-256c-25.6 0-42.667 17.067-42.667 42.667s17.067 42.667 42.667 42.667h256c25.6 0 42.667-17.067 42.667-42.667s-17.067-42.667-42.667-42.667z" />
<glyph unicode="&#xe8fa;" glyph-name="zoom-out" d="M469.333 106.667c-213.333 0-384 170.667-384 384s170.667 384 384 384c213.333 0 384-170.667 384-384s-170.667-384-384-384zM469.333 789.333c-166.4 0-298.667-132.267-298.667-298.667s132.267-298.667 298.667-298.667c166.4 0 298.667 132.267 298.667 298.667s-132.267 298.667-298.667 298.667zM896 21.333c-12.8 0-21.333 4.267-29.867 12.8l-183.467 183.467c-17.067 17.067-17.067 42.667 0 59.733s42.667 17.067 59.733 0l183.467-183.467c17.067-17.067 17.067-42.667 0-59.733-8.533-8.533-17.067-12.8-29.867-12.8zM597.333 448h-256c-25.6 0-42.667 17.067-42.667 42.667s17.067 42.667 42.667 42.667h256c25.6 0 42.667-17.067 42.667-42.667s-17.067-42.667-42.667-42.667z" />
<glyph unicode="&#xe8ff;" glyph-name="underline" d="M512 234.667c-166.4 0-298.667 132.267-298.667 298.667v298.667c0 25.6 17.067 42.667 42.667 42.667s42.667-17.067 42.667-42.667v-298.667c0-119.467 93.867-213.333 213.333-213.333s213.333 93.867 213.333 213.333v298.667c0 25.6 17.067 42.667 42.667 42.667s42.667-17.067 42.667-42.667v-298.667c0-166.4-132.267-298.667-298.667-298.667zM853.333 21.333h-682.667c-25.6 0-42.667 17.067-42.667 42.667s17.067 42.667 42.667 42.667h682.667c25.6 0 42.667-17.067 42.667-42.667s-17.067-42.667-42.667-42.667z" />
<glyph unicode="&#xe900;" glyph-name="italic" d="M810.667 746.667h-384c-25.6 0-42.667 17.067-42.667 42.667s17.067 42.667 42.667 42.667h384c25.6 0 42.667-17.067 42.667-42.667s-17.067-42.667-42.667-42.667zM597.333 64h-384c-25.6 0-42.667 17.067-42.667 42.667s17.067 42.667 42.667 42.667h384c25.6 0 42.667-17.067 42.667-42.667s-17.067-42.667-42.667-42.667zM384 64c-4.267 0-8.533 0-17.067 4.267-21.333 8.533-34.133 34.133-25.6 55.467l256 682.667c8.533 21.333 34.133 34.133 55.467 25.6s34.133-34.133 25.6-55.467l-256-682.667c-4.267-21.333-21.333-29.867-38.4-29.867z" />
<glyph unicode="&#xe901;" glyph-name="bold" d="M597.333 405.333h-341.333c-25.6 0-42.667 17.067-42.667 42.667v341.333c0 25.6 17.067 42.667 42.667 42.667h341.333c119.467 0 213.333-93.867 213.333-213.333s-93.867-213.333-213.333-213.333zM298.667 490.667h298.667c72.533 0 128 55.467 128 128s-55.467 128-128 128h-298.667v-256zM640 64h-384c-25.6 0-42.667 17.067-42.667 42.667v341.333c0 25.6 17.067 42.667 42.667 42.667h384c119.467 0 213.333-93.867 213.333-213.333s-93.867-213.333-213.333-213.333zM298.667 149.333h341.333c72.533 0 128 55.467 128 128s-55.467 128-128 128h-341.333v-256z" />
<glyph unicode="&#xe903;" glyph-name="help-circle" d="M512-21.333c-260.267 0-469.333 209.067-469.333 469.333s209.067 469.333 469.333 469.333 469.333-209.067 469.333-469.333-209.067-469.333-469.333-469.333zM512 832c-213.333 0-384-170.667-384-384s170.667-384 384-384c213.333 0 384 170.667 384 384s-170.667 384-384 384zM507.733 362.667c-17.067 0-34.133 12.8-38.4 29.867-8.533 21.333 4.267 46.933 25.6 55.467 25.6 8.533 98.133 42.667 98.133 89.6 0 38.4-21.333 68.267-55.467 81.067-42.667 17.067-93.867-8.533-110.933-51.2-8.533-21.333-34.133-34.133-55.467-25.6-21.333 0-29.867 25.6-25.6 46.933 29.867 89.6 128 136.533 217.6 102.4 68.267-25.6 115.2-89.6 115.2-162.133 0-110.933-140.8-162.133-157.867-166.4-4.267 0-8.533 0-12.8 0zM512 192c-12.8 0-21.333 4.267-29.867 12.8s-12.8 17.067-12.8 29.867c0 4.267 0 12.8 4.267 17.067s4.267 8.533 8.533 12.8c17.067 17.067 42.667 17.067 59.733 0 4.267-4.267 8.533-8.533 8.533-12.8s4.267-12.8 4.267-17.067 0-12.8-4.267-17.067c-4.267-4.267-4.267-8.533-8.533-12.8-8.533-8.533-17.067-12.8-29.867-12.8z" />
<glyph unicode="&#xe904;" glyph-name="paperclip" d="M341.333-21.333c-76.8 0-153.6 29.867-213.333 85.333-115.2 115.2-115.2 307.2 0 422.4l392.533 392.533c38.4 38.4 93.867 64 149.333 64s110.933-21.333 149.333-64c85.333-85.333 85.333-217.6 0-302.933l-392.533-392.533c-51.2-51.2-132.267-51.2-179.2 0-21.333 25.6-34.133 59.733-34.133 93.867s12.8 68.267 38.4 89.6l362.667 362.667c17.067 17.067 42.667 17.067 59.733 0s17.067-42.667 0-59.733l-362.667-362.667c-8.533-8.533-12.8-17.067-12.8-29.867s4.267-21.333 12.8-29.867c17.067-17.067 42.667-17.067 59.733 0l392.533 392.533c51.2 51.2 51.2 132.267 0 179.2-46.933 46.933-132.267 46.933-179.2 0l-392.533-392.533c-85.333-85.333-85.333-217.6 0-302.933s217.6-85.333 302.933 0l392.533 392.533c17.067 17.067 42.667 17.067 59.733 0s17.067-42.667 0-59.733l-392.533-388.267c-59.733-59.733-136.533-89.6-213.333-89.6z" />
<glyph unicode="&#xe905;" glyph-name="shopping-cart" d="M469.333 64c0-47.128-38.205-85.333-85.333-85.333s-85.333 38.205-85.333 85.333c0 47.128 38.205 85.333 85.333 85.333s85.333-38.205 85.333-85.333zM938.667 64c0-47.128-38.205-85.333-85.333-85.333s-85.333 38.205-85.333 85.333c0 47.128 38.205 85.333 85.333 85.333s85.333-38.205 85.333-85.333zM409.6 234.667c-59.733 0-110.933 42.667-123.733 102.4l-72.533 358.4c0 0 0 4.267 0 4.267l-34.133 174.933h-136.533c-25.6 0-42.667 17.067-42.667 42.667s17.067 42.667 42.667 42.667h170.667c21.333 0 38.4-12.8 42.667-34.133l34.133-179.2h691.2c12.8 0 25.6-4.267 34.133-17.067 8.533-8.533 8.533-21.333 8.533-34.133l-68.267-358.4c-12.8-59.733-68.267-102.4-128-102.4h-418.133c4.267 0 0 0 0 0zM307.2 661.333l59.733-307.2c4.267-21.333 21.333-34.133 42.667-34.133h413.867c21.333 0 38.4 12.8 42.667 34.133l64 307.2h-622.933z" />
<glyph unicode="&#xe90a;" glyph-name="sliders" d="M170.667 21.333c-25.6 0-42.667 17.067-42.667 42.667v298.667c0 25.6 17.067 42.667 42.667 42.667s42.667-17.067 42.667-42.667v-298.667c0-25.6-17.067-42.667-42.667-42.667zM170.667 490.667c-25.6 0-42.667 17.067-42.667 42.667v298.667c0 25.6 17.067 42.667 42.667 42.667s42.667-17.067 42.667-42.667v-298.667c0-25.6-17.067-42.667-42.667-42.667zM512 21.333c-25.6 0-42.667 17.067-42.667 42.667v384c0 25.6 17.067 42.667 42.667 42.667s42.667-17.067 42.667-42.667v-384c0-25.6-17.067-42.667-42.667-42.667zM512 576c-25.6 0-42.667 17.067-42.667 42.667v213.333c0 25.6 17.067 42.667 42.667 42.667s42.667-17.067 42.667-42.667v-213.333c0-25.6-17.067-42.667-42.667-42.667zM853.333 21.333c-25.6 0-42.667 17.067-42.667 42.667v213.333c0 25.6 17.067 42.667 42.667 42.667s42.667-17.067 42.667-42.667v-213.333c0-25.6-17.067-42.667-42.667-42.667zM853.333 405.333c-25.6 0-42.667 17.067-42.667 42.667v384c0 25.6 17.067 42.667 42.667 42.667s42.667-17.067 42.667-42.667v-384c0-25.6-17.067-42.667-42.667-42.667zM298.667 320h-256c-25.6 0-42.667 17.067-42.667 42.667s17.067 42.667 42.667 42.667h256c25.6 0 42.667-17.067 42.667-42.667s-17.067-42.667-42.667-42.667zM640 576h-256c-25.6 0-42.667 17.067-42.667 42.667s17.067 42.667 42.667 42.667h256c25.6 0 42.667-17.067 42.667-42.667s-17.067-42.667-42.667-42.667zM981.333 234.667h-256c-25.6 0-42.667 17.067-42.667 42.667s17.067 42.667 42.667 42.667h256c25.6 0 42.667-17.067 42.667-42.667s-17.067-42.667-42.667-42.667z" />
<glyph unicode="&#xe90d;" glyph-name="archive" d="M896 21.333h-768c-25.6 0-42.667 17.067-42.667 42.667v554.667c0 25.6 17.067 42.667 42.667 42.667s42.667-17.067 42.667-42.667v-512h682.667v512c0 25.6 17.067 42.667 42.667 42.667s42.667-17.067 42.667-42.667v-554.667c0-25.6-17.067-42.667-42.667-42.667zM981.333 576h-938.667c-25.6 0-42.667 17.067-42.667 42.667v213.333c0 25.6 17.067 42.667 42.667 42.667h938.667c25.6 0 42.667-17.067 42.667-42.667v-213.333c0-25.6-17.067-42.667-42.667-42.667zM85.333 661.333h853.333v128h-853.333v-128zM597.333 405.333h-170.667c-25.6 0-42.667 17.067-42.667 42.667s17.067 42.667 42.667 42.667h170.667c25.6 0 42.667-17.067 42.667-42.667s-17.067-42.667-42.667-42.667z" />
<glyph unicode="&#xe915;" glyph-name="code" d="M682.667 149.333c-12.8 0-21.333 4.267-29.867 12.8-17.067 17.067-17.067 42.667 0 59.733l226.133 226.133-226.133 226.133c-17.067 17.067-17.067 42.667 0 59.733s42.667 17.067 59.733 0l256-256c17.067-17.067 17.067-42.667 0-59.733l-256-256c-8.533-8.533-17.067-12.8-29.867-12.8zM341.333 149.333c-12.8 0-21.333 4.267-29.867 12.8l-256 256c-17.067 17.067-17.067 42.667 0 59.733l256 256c17.067 17.067 42.667 17.067 59.733 0s17.067-42.667 0-59.733l-226.133-226.133 226.133-226.133c17.067-17.067 17.067-42.667 0-59.733-8.533-8.533-17.067-12.8-29.867-12.8z" />
<glyph unicode="&#xe917;" glyph-name="dollar-sign" d="M512-64c-25.6 0-42.667 17.067-42.667 42.667v938.667c0 25.6 17.067 42.667 42.667 42.667s42.667-17.067 42.667-42.667v-938.667c0-25.6-17.067-42.667-42.667-42.667zM618.667 106.667h-362.667c-25.6 0-42.667 17.067-42.667 42.667s17.067 42.667 42.667 42.667h362.667c59.733 0 106.667 46.933 106.667 106.667s-46.933 106.667-106.667 106.667h-213.333c-106.667 0-192 85.333-192 192s85.333 192 192 192h320c25.6 0 42.667-17.067 42.667-42.667s-17.067-42.667-42.667-42.667h-320c-59.733 0-106.667-46.933-106.667-106.667s46.933-106.667 106.667-106.667h213.333c106.667 0 192-85.333 192-192s-85.333-192-192-192z" />
<glyph unicode="&#xe918;" glyph-name="folder-plus" d="M853.333 21.333h-682.667c-72.533 0-128 55.467-128 128v597.333c0 72.533 55.467 128 128 128h213.333c12.8 0 25.6-8.533 34.133-17.067l72.533-110.933h362.667c72.533 0 128-55.467 128-128v-469.333c0-72.533-55.467-128-128-128zM170.667 789.333c-25.6 0-42.667-17.067-42.667-42.667v-597.333c0-25.6 17.067-42.667 42.667-42.667h682.667c25.6 0 42.667 17.067 42.667 42.667v469.333c0 25.6-17.067 42.667-42.667 42.667h-384c-12.8 0-25.6 8.533-34.133 17.067l-72.533 110.933h-192zM512 192c-25.6 0-42.667 17.067-42.667 42.667v256c0 25.6 17.067 42.667 42.667 42.667s42.667-17.067 42.667-42.667v-256c0-25.6-17.067-42.667-42.667-42.667zM640 320h-256c-25.6 0-42.667 17.067-42.667 42.667s17.067 42.667 42.667 42.667h256c25.6 0 42.667-17.067 42.667-42.667s-17.067-42.667-42.667-42.667z" />
<glyph unicode="&#xe91a;" glyph-name="folder-minus" d="M853.333 21.333h-682.667c-72.533 0-128 55.467-128 128v597.333c0 72.533 55.467 128 128 128h213.333c12.8 0 25.6-8.533 34.133-17.067l72.533-110.933h362.667c72.533 0 128-55.467 128-128v-469.333c0-72.533-55.467-128-128-128zM170.667 789.333c-25.6 0-42.667-17.067-42.667-42.667v-597.333c0-25.6 17.067-42.667 42.667-42.667h682.667c25.6 0 42.667 17.067 42.667 42.667v469.333c0 25.6-17.067 42.667-42.667 42.667h-384c-12.8 0-25.6 8.533-34.133 17.067l-72.533 110.933h-192zM640 320h-256c-25.6 0-42.667 17.067-42.667 42.667s17.067 42.667 42.667 42.667h256c25.6 0 42.667-17.067 42.667-42.667s-17.067-42.667-42.667-42.667z" />
<glyph unicode="&#xe91e;" glyph-name="git-merge" d="M768 21.333c-93.867 0-170.667 76.8-170.667 170.667s76.8 170.667 170.667 170.667 170.667-76.8 170.667-170.667-76.8-170.667-170.667-170.667zM768 277.333c-46.933 0-85.333-38.4-85.333-85.333s38.4-85.333 85.333-85.333 85.333 38.4 85.333 85.333-38.4 85.333-85.333 85.333zM256 533.333c-93.867 0-170.667 76.8-170.667 170.667s76.8 170.667 170.667 170.667 170.667-76.8 170.667-170.667-76.8-170.667-170.667-170.667zM256 789.333c-46.933 0-85.333-38.4-85.333-85.333s38.4-85.333 85.333-85.333 85.333 38.4 85.333 85.333-38.4 85.333-85.333 85.333zM256 21.333c-25.6 0-42.667 17.067-42.667 42.667v512c0 25.6 17.067 42.667 42.667 42.667s42.667-17.067 42.667-42.667c0-187.733 153.6-341.333 341.333-341.333 25.6 0 42.667-17.067 42.667-42.667s-17.067-42.667-42.667-42.667c-140.8 0-264.533 68.267-341.333 170.667v-256c0-25.6-17.067-42.667-42.667-42.667z" />
<glyph unicode="&#xe923;" glyph-name="rss" d="M554.667 64c-25.6 0-42.667 17.067-42.667 42.667 0 187.733-153.6 341.333-341.333 341.333-25.6 0-42.667 17.067-42.667 42.667s17.067 42.667 42.667 42.667c234.667 0 426.667-192 426.667-426.667 0-25.6-17.067-42.667-42.667-42.667zM853.333 64c-25.6 0-42.667 17.067-42.667 42.667 0 354.133-285.867 640-640 640-25.6 0-42.667 17.067-42.667 42.667s17.067 42.667 42.667 42.667c401.067 0 725.333-324.267 725.333-725.333 0-25.6-17.067-42.667-42.667-42.667zM298.667 149.333c0-47.128-38.205-85.333-85.333-85.333s-85.333 38.205-85.333 85.333c0 47.128 38.205 85.333 85.333 85.333s85.333-38.205 85.333-85.333z" />
<glyph unicode="&#xe927;" glyph-name="terminal" d="M170.667 192c-12.8 0-21.333 4.267-29.867 12.8-17.067 17.067-17.067 42.667 0 59.733l226.133 226.133-226.133 226.133c-17.067 17.067-17.067 42.667 0 59.733s42.667 17.067 59.733 0l256-256c17.067-17.067 17.067-42.667 0-59.733l-256-256c-8.533-8.533-17.067-12.8-29.867-12.8zM853.333 106.667h-341.333c-25.6 0-42.667 17.067-42.667 42.667s17.067 42.667 42.667 42.667h341.333c25.6 0 42.667-17.067 42.667-42.667s-17.067-42.667-42.667-42.667z" />
<glyph unicode="&#xe928;" glyph-name="truck" d="M682.667 234.667h-640c-25.6 0-42.667 17.067-42.667 42.667v554.667c0 25.6 17.067 42.667 42.667 42.667h640c25.6 0 42.667-17.067 42.667-42.667v-554.667c0-25.6-17.067-42.667-42.667-42.667zM85.333 320h554.667v469.333h-554.667v-469.333zM981.333 234.667h-298.667c-25.6 0-42.667 17.067-42.667 42.667v341.333c0 25.6 17.067 42.667 42.667 42.667h170.667c12.8 0 21.333-4.267 29.867-12.8l128-128c8.533-8.533 12.8-17.067 12.8-29.867v-213.333c0-25.6-17.067-42.667-42.667-42.667zM725.333 320h213.333v153.6l-102.4 102.4h-110.933v-256zM234.667 21.333c-81.067 0-149.333 68.267-149.333 149.333s68.267 149.333 149.333 149.333 149.333-68.267 149.333-149.333-68.267-149.333-149.333-149.333zM234.667 234.667c-34.133 0-64-29.867-64-64s29.867-64 64-64 64 29.867 64 64-29.867 64-64 64zM789.333 21.333c-81.067 0-149.333 68.267-149.333 149.333s68.267 149.333 149.333 149.333 149.333-68.267 149.333-149.333-68.267-149.333-149.333-149.333zM789.333 234.667c-34.133 0-64-29.867-64-64s29.867-64 64-64 64 29.867 64 64-29.867 64-64 64z" />
<glyph unicode="&#xf8e5;" glyph-name="user-check" d="M682.667 21.333c-25.6 0-42.667 17.067-42.667 42.667v85.333c0 72.533-55.467 128-128 128h-298.667c-72.533 0-128-55.467-128-128v-85.333c0-25.6-17.067-42.667-42.667-42.667s-42.667 17.067-42.667 42.667v85.333c0 119.467 93.867 213.333 213.333 213.333h298.667c119.467 0 213.333-93.867 213.333-213.333v-85.333c0-25.6-17.067-42.667-42.667-42.667zM362.667 448c-119.467 0-213.333 93.867-213.333 213.333s93.867 213.333 213.333 213.333 213.333-93.867 213.333-213.333-93.867-213.333-213.333-213.333zM362.667 789.333c-72.533 0-128-55.467-128-128s55.467-128 128-128 128 55.467 128 128-55.467 128-128 128zM810.667 362.667c-12.8 0-21.333 4.267-29.867 12.8l-85.333 85.333c-17.067 17.067-17.067 42.667 0 59.733s42.667 17.067 59.733 0l55.467-55.467 140.8 140.8c17.067 17.067 42.667 17.067 59.733 0s17.067-42.667 0-59.733l-170.667-170.667c-8.533-8.533-17.067-12.8-29.867-12.8z" />
<glyph unicode="&#xf900;" glyph-name="x" d="M256 149.333c-12.8 0-21.333 4.267-29.867 12.8-17.067 17.067-17.067 42.667 0 59.733l512 512c17.067 17.067 42.667 17.067 59.733 0s17.067-42.667 0-59.733l-512-512c-8.533-8.533-17.067-12.8-29.867-12.8zM768 149.333c-12.8 0-21.333 4.267-29.867 12.8l-512 512c-17.067 17.067-17.067 42.667 0 59.733s42.667 17.067 59.733 0l512-512c17.067-17.067 17.067-42.667 0-59.733-8.533-8.533-17.067-12.8-29.867-12.8z" />
<glyph unicode="&#xf925;" glyph-name="indent" d="M896 490.667h-512c-25.6 0-42.667 17.067-42.667 42.667s17.067 42.667 42.667 42.667h512c25.6 0 42.667-17.067 42.667-42.667s-17.067-42.667-42.667-42.667zM896 661.333h-768c-25.6 0-42.667 17.067-42.667 42.667s17.067 42.667 42.667 42.667h768c25.6 0 42.667-17.067 42.667-42.667s-17.067-42.667-42.667-42.667zM896 320h-512c-25.6 0-42.667 17.067-42.667 42.667s17.067 42.667 42.667 42.667h512c25.6 0 42.667-17.067 42.667-42.667s-17.067-42.667-42.667-42.667zM896 149.333h-768c-25.6 0-42.667 17.067-42.667 42.667s17.067 42.667 42.667 42.667h768c25.6 0 42.667-17.067 42.667-42.667s-17.067-42.667-42.667-42.667zM85.333 576v-256l170.667 128z" />
<glyph unicode="&#xf92b;" glyph-name="list-2" d="M896 661.333h-554.667c-25.6 0-42.667 17.067-42.667 42.667s17.067 42.667 42.667 42.667h554.667c25.6 0 42.667-17.067 42.667-42.667s-17.067-42.667-42.667-42.667zM896 405.333h-554.667c-25.6 0-42.667 17.067-42.667 42.667s17.067 42.667 42.667 42.667h554.667c25.6 0 42.667-17.067 42.667-42.667s-17.067-42.667-42.667-42.667zM896 149.333h-554.667c-25.6 0-42.667 17.067-42.667 42.667s17.067 42.667 42.667 42.667h554.667c25.6 0 42.667-17.067 42.667-42.667s-17.067-42.667-42.667-42.667zM132.267 746.667v0l-29.867-12.8-4.267 21.333 38.4 17.067h25.6v-140.8h-29.867v115.2zM89.6 379.733v21.333l17.067 17.067c29.867 25.6 46.933 42.667 46.933 59.733 0 12.8-8.533 21.333-21.333 21.333s-21.333-4.267-29.867-12.8l-8.533 21.333c8.533 8.533 25.6 12.8 46.933 12.8 29.867 0 46.933-17.067 46.933-42.667 0-21.333-17.067-42.667-38.4-59.733l-12.8-12.8h51.2v-25.6h-98.133zM93.867 153.6c4.267-4.267 17.067-8.533 34.133-8.533s25.6 8.533 25.6 17.067c0 12.8-12.8 21.333-29.867 21.333h-12.8v21.333h12.8c12.8 0 25.6 4.267 25.6 17.067 0 8.533-8.533 12.8-21.333 12.8s-21.333-4.267-29.867-8.533l-8.533 21.333c8.533 4.267 25.6 8.533 42.667 8.533 29.867 0 46.933-17.067 46.933-34.133 0-12.8-8.533-25.6-25.6-34.133v0c17.067 4.267 34.133-8.533 34.133-25.6 0-25.6-21.333-42.667-55.467-42.667-17.067 0-34.133 4.267-42.667 8.533l4.267 25.6z" />
<glyph unicode="&#xf934;" glyph-name="no-indent" d="M896 490.667h-512c-25.6 0-42.667 17.067-42.667 42.667s17.067 42.667 42.667 42.667h512c25.6 0 42.667-17.067 42.667-42.667s-17.067-42.667-42.667-42.667zM896 661.333h-768c-25.6 0-42.667 17.067-42.667 42.667s17.067 42.667 42.667 42.667h768c25.6 0 42.667-17.067 42.667-42.667s-17.067-42.667-42.667-42.667zM896 320h-512c-25.6 0-42.667 17.067-42.667 42.667s17.067 42.667 42.667 42.667h512c25.6 0 42.667-17.067 42.667-42.667s-17.067-42.667-42.667-42.667zM896 149.333h-768c-25.6 0-42.667 17.067-42.667 42.667s17.067 42.667 42.667 42.667h768c25.6 0 42.667-17.067 42.667-42.667s-17.067-42.667-42.667-42.667zM85.333 448l170.667-128v256z" />
<glyph unicode="&#xf935;" glyph-name="no-message" d="M128 21.333c-12.8 0-21.333 4.267-29.867 12.8-12.8 12.8-17.067 29.867-8.533 42.667l76.8 226.133c-25.6 51.2-38.4 110.933-38.4 166.4 0 153.6 85.333 294.4 226.133 362.667 55.467 29.867 119.467 42.667 179.2 42.667v0h21.333c209.067-12.8 371.2-174.933 384-379.733v-25.6c0-64-12.8-123.733-42.667-183.467-68.267-136.533-209.067-221.867-362.667-221.867-55.467 0-115.2 12.8-166.4 34.133l-226.133-76.8c-4.267 0-8.533 0-12.8 0zM533.333 789.333c-51.2 0-98.133-12.8-140.8-34.133-110.933-55.467-179.2-162.133-179.2-285.867 0-51.2 12.8-98.133 34.133-140.8 4.267-8.533 4.267-21.333 4.267-34.133l-55.467-162.133 162.133 55.467c12.8 4.267 21.333 4.267 34.133-4.267 42.667-21.333 93.867-34.133 140.8-34.133 123.733 0 230.4 68.267 285.867 174.933 21.333 42.667 34.133 93.867 34.133 140.8v0 25.6c-8.533 162.133-136.533 290.133-302.933 298.667h-17.067zM110.933 844.8c17.067 17.067 42.667 17.067 59.733 0l746.667-733.867c17.067-17.067 17.067-42.667 0-59.733s-42.667-17.067-59.733 0l-746.667 733.867c-21.333 17.067-21.333 42.667 0 59.733z" />
<glyph unicode="&#xf93d;" glyph-name="strike" d="M853.333 405.333h-682.667c-25.6 0-42.667 17.067-42.667 42.667s17.067 42.667 42.667 42.667h682.667c25.6 0 42.667-17.067 42.667-42.667s-17.067-42.667-42.667-42.667zM315.733 196.267c42.667-25.6 106.667-46.933 170.667-46.933 98.133 0 153.6 51.2 153.6 123.733 0 68.267-38.4 106.667-136.533 145.067-119.467 42.667-192 106.667-192 209.067 0 115.2 93.867 200.533 238.933 200.533 76.8 0 128-17.067 162.133-34.133l-25.6-76.8c-34.133 8.533-81.067 29.867-149.333 29.867-98.133 0-136.533-59.733-136.533-110.933 0-68.267 42.667-102.4 145.067-140.8 123.733-46.933 187.733-106.667 187.733-217.6 0-115.2-85.333-213.333-256-213.333-72.533 0-149.333 21.333-187.733 46.933l25.6 85.333z" />
<glyph unicode="&#xf94a;" glyph-name="trello" d="M810.667 21.333h-597.333c-72.533 0-128 55.467-128 128v597.333c0 72.533 55.467 128 128 128h597.333c72.533 0 128-55.467 128-128v-597.333c0-72.533-55.467-128-128-128zM213.333 789.333c-25.6 0-42.667-17.067-42.667-42.667v-597.333c0-25.6 17.067-42.667 42.667-42.667h597.333c25.6 0 42.667 17.067 42.667 42.667v597.333c0 25.6-17.067 42.667-42.667 42.667h-597.333zM426.667 234.667h-128c-25.6 0-42.667 17.067-42.667 42.667v384c0 25.6 17.067 42.667 42.667 42.667h128c25.6 0 42.667-17.067 42.667-42.667v-384c0-25.6-17.067-42.667-42.667-42.667zM341.333 320h42.667v298.667h-42.667v-298.667zM725.333 405.333h-128c-25.6 0-42.667 17.067-42.667 42.667v213.333c0 25.6 17.067 42.667 42.667 42.667h128c25.6 0 42.667-17.067 42.667-42.667v-213.333c0-25.6-17.067-42.667-42.667-42.667zM640 490.667h42.667v128h-42.667v-128z" />
</font>
</defs>
</svg>
